<?xml version="1.0" standalone="no"?>
<!DOCTYPE svg PUBLIC "-//W3C//DTD SVG 1.1//EN" "http://www.w3.org/Graphics/SVG/1.1/DTD/svg11.dtd" >
<svg xmlns="http://www.w3.org/2000/svg">
<metadata>Generated by IcoMoon</metadata>
<defs>
<font id="icomoon" horiz-adv-x="1024">
<font-face units-per-em="1024" ascent="960" descent="-64" />
<missing-glyph horiz-adv-x="1024" />
<glyph unicode="&#x20;" horiz-adv-x="512" d="" />
<glyph unicode="&#xe900;" glyph-name="add-user" d="M590.507 486.165c23.209-21.916 43.378-46.673 60.055-73.806l0.895-1.565c42.617 27.043 94.522 43.097 150.176 43.097 24.013 0 47.328-2.989 69.594-8.614l-1.956 0.419c-33.989 44.591-77.67 80.069-128.033 103.65l-2.1 0.883c-39.426-36.155-90.924-59.718-147.801-64.014l-0.828-0.050zM518.059 170.389c0 0.046 0 0.101 0 0.155 0 79.173 32.553 150.743 85.005 202.056l0.051 0.050c-28.832 50.238-70.523 90.224-120.646 116.199l-1.636 0.771c-42.393-29.493-94.965-47.12-151.653-47.12-56.53 0-108.965 17.528-152.169 47.446l0.888-0.582c-109.248-59.051-177.899-181.909-177.899-323.776v-217.6h625.984c-65.978 52.31-107.921 132.456-107.925 222.399v0.001zM597.333 710.677c0-0.078 0-0.171 0-0.263 0-57.787-18.381-111.281-49.616-154.955l0.549 0.807 1.557-8.363c6.702-0.842 14.458-1.323 22.327-1.323 0.041 0 0.081 0 0.122 0h-0.006c103.065 0.116 186.57 83.693 186.57 186.773 0 103.152-83.621 186.773-186.773 186.773-22.525 0-44.118-3.987-64.113-11.295l1.298 0.415c54.192-49.152 88.085-119.837 88.085-198.438 0-0.047 0-0.093 0-0.14v0.007zM530.725 758.432c26.316-111.324-42.597-222.903-153.921-249.219s-222.903 42.597-249.219 153.921c-26.316 111.324 42.597 222.903 153.921 249.219s222.903-42.597 249.219-153.921zM1024 170.389c0 122.852-99.591 222.443-222.443 222.443s-222.443-99.591-222.443-222.443c0-122.852 99.591-222.443 222.443-222.443v0c122.793 0.146 222.297 99.649 222.443 222.428v0.014zM672 139.861v61.056h99.029v99.029h61.056v-99.029h99.029v-61.056h-99.029v-99.029h-61.056v99.029z" />
<glyph unicode="&#xe901;" glyph-name="bell" horiz-adv-x="853" d="M826.837 238.379c-62.255 52.779-101.504 131.042-101.504 218.472 0 0.068 0 0.137 0 0.205v-0.011 118.955c-0.297 149.702-110.601 273.553-254.36 295.031l-1.64 0.201v46.101c0 23.564-19.103 42.667-42.667 42.667s-42.667-19.103-42.667-42.667v0-46.080c-145.415-21.663-255.733-145.535-256-295.225v-118.983c0-0.034 0-0.073 0-0.113 0-87.637-39.406-166.071-101.466-218.548l-0.422-0.347c-16.012-13.776-26.089-34.063-26.089-56.704 0-41.229 33.416-74.654 74.643-74.667h704.001c41.235 0.003 74.661 33.431 74.661 74.667 0 22.826-10.243 43.26-26.383 56.956l-0.108 0.089zM426.645-64c76.998 0.109 141.26 54.502 156.572 126.954l0.185 1.046h-313.6c15.505-73.494 79.763-127.883 156.745-128h0.013z" />
<glyph unicode="&#xe902;" glyph-name="book" d="M162.027 55.061c-0.331-0.012-0.719-0.019-1.109-0.019-17.778 0-32.266 14.084-32.916 31.703l-0.002 0.059v742.208c2.759 72.958 62.571 131.056 135.951 131.056 1.533 0 3.059-0.025 4.58-0.076l-0.221 0.006h608c0.324 0.011 0.705 0.018 1.088 0.018 17.778 0 32.266-14.084 32.916-31.703l0.002-0.059v-730.304c-1.506-17.595-16.16-31.306-34.016-31.306s-32.51 13.711-34.007 31.179l-0.009 0.127v698.539h-573.973c-0.669 0.023-1.455 0.036-2.244 0.036-37.801 0-68.613-29.93-70.029-67.384l-0.004-0.129v-742.208c-0.652-17.678-15.14-31.762-32.918-31.762-0.383 0-0.763 0.007-1.143 0.019l0.055-0.001zM876.352-64h-595.2c-84.542 0-153.077 68.535-153.077 153.077s68.535 153.077 153.077 153.077v0h595.2c18.422-0.476 33.175-15.523 33.175-34.016s-14.752-33.54-33.131-34.015l-0.044-0.001h-595.2c-46.969 0-85.045-38.076-85.045-85.045s38.076-85.045 85.045-85.045h595.2c18.422-0.476 33.175-15.523 33.175-34.016s-14.752-33.54-33.131-34.015l-0.044-0.001zM876.395 55.061h-595.2c-18.422 0.476-33.175 15.523-33.175 34.016s14.752 33.54 33.131 34.015l0.044 0.001h595.2c18.422-0.476 33.175-15.523 33.175-34.016s-14.752-33.54-33.131-34.015l-0.044-0.001zM315.093 109.589c-18.768 0.060-33.966 15.259-34.027 34.021v782.363c0.476 18.422 15.523 33.175 34.016 33.175s33.54-14.752 34.015-33.131l0.001-0.044v-782.357c-0.060-18.761-15.246-33.954-33.998-34.027h-0.007z" />
<glyph unicode="&#xe903;" glyph-name="box" horiz-adv-x="1032" d="M477.398 482.258l-463.407 195.124c-1.155 0.499-2.499 0.79-3.912 0.79-5.565 0-10.077-4.51-10.080-10.074v0-521.65c0.035-13.46 8.313-24.978 20.052-29.774l0.215-0.078 449.48-179.801c1.107-0.455 2.393-0.719 3.74-0.719 5.563 0 10.073 4.506 10.080 10.068v526.83c-0.002 4.152-2.515 7.717-6.103 9.259l-0.066 0.025zM519.716 537.685l447.933 188.612c3.65 1.57 6.158 5.135 6.158 9.286 0 4.018-2.352 7.488-5.754 9.107l-0.061 0.026-438.562 204.645c-3.996 1.91-8.686 3.026-13.637 3.026s-9.64-1.116-13.832-3.11l0.195 0.084-438.541-204.667c-3.463-1.645-5.815-5.114-5.815-9.133 0-4.151 2.509-7.716 6.093-9.261l0.065-0.025 447.933-188.591c1.154-0.501 2.499-0.792 3.912-0.792s2.757 0.291 3.977 0.817l-0.065-0.025zM548.042 472.974v-526.894c0.006-5.562 4.517-10.068 10.080-10.068 1.347 0 2.632 0.264 3.807 0.744l-0.067-0.024 449.48 179.865c11.978 4.884 20.267 16.441 20.267 29.933 0 0.002 0 0.004 0 0.006v0 521.564c-0.003 5.565-4.515 10.074-10.080 10.074-1.412 0-2.757-0.29-3.977-0.815l0.066 0.025-463.407-195.124c-3.653-1.567-6.166-5.132-6.168-9.284v0z" />
<glyph unicode="&#xe904;" glyph-name="brife-case" d="M640 682.667c-23.564 0-42.667 19.103-42.667 42.667v0 64h-170.667v-64c0-23.564-19.103-42.667-42.667-42.667s-42.667 19.103-42.667 42.667v0 64c0 47.128 38.205 85.333 85.333 85.333v0h170.667c47.128 0 85.333-38.205 85.333-85.333v0-64c0-23.564-19.103-42.667-42.667-42.667v0zM542.293 303.787c-8.801-3.245-18.966-5.123-29.569-5.123-0.255 0-0.509 0.001-0.764 0.003h0.039c-11.804 0.004-23.096 2.194-33.493 6.189l0.64-0.216-479.147 159.573v-325.547c0-64.801 52.532-117.333 117.333-117.333v0h789.333c64.801 0 117.333 52.532 117.333 117.333v0 325.547zM1024 629.333v-97.707l-501.76-167.253c-3.053-1.082-6.573-1.707-10.24-1.707s-7.187 0.625-10.461 1.774l0.221-0.068-501.76 167.253v97.707c0 64.801 52.532 117.333 117.333 117.333v0h789.333c64.801 0 117.333-52.532 117.333-117.333v0z" />
<glyph unicode="&#xe905;" glyph-name="calendar" horiz-adv-x="1001" d="M361.728 395.072c-0.012 12.822-10.409 23.211-23.232 23.211h-81.067c-12.823 0-23.22-10.389-23.232-23.21v-81.068c0-12.831 10.401-23.232 23.232-23.232v0h81.067c12.831 0 23.232 10.401 23.232 23.232v0 81.067zM564.437 395.072c-0.012 12.814-10.397 23.199-23.209 23.211h-81.068c-12.823 0-23.22-10.389-23.232-23.21v-81.068c0-12.831 10.401-23.232 23.232-23.232v0h81.067c12.822 0.012 23.211 10.409 23.211 23.232v0zM767.125 395.072c-0.012 12.822-10.409 23.211-23.232 23.211h-81.067c-0.006 0-0.014 0-0.021 0-12.823 0-23.22-10.389-23.232-23.21v-81.068c0-12.831 10.401-23.232 23.232-23.232 0.007 0 0.015 0 0.022 0h81.066c12.831 0 23.232 10.401 23.232 23.232v0zM361.728 192.341c0 12.831-10.401 23.232-23.232 23.232v0h-81.067c-12.831 0-23.232-10.401-23.232-23.232v0-81.067c0-12.831 10.401-23.232 23.232-23.232v0h81.067c12.831 0 23.232 10.401 23.232 23.232v0 81.067zM564.437 192.341c0 0.006 0 0.014 0 0.021 0 12.819-10.392 23.211-23.211 23.211h-81.067c-12.831 0-23.232-10.401-23.232-23.232v0-81.067c0-12.831 10.401-23.232 23.232-23.232v0h81.067c12.822 0.012 23.211 10.409 23.211 23.232v0zM767.125 192.341c0 12.823-10.389 23.22-23.21 23.232h-81.068c-0.006 0-0.014 0-0.021 0-12.831 0-23.232-10.401-23.232-23.232v0-81.067c0-12.831 10.401-23.232 23.232-23.232 0.007 0 0.015 0 0.022 0h81.066c12.822 0.012 23.211 10.409 23.211 23.232v0 81.067zM912.171 845.973v-123.861c-0.036-55.843-45.314-101.099-101.163-101.099-0.083 0-0.165 0-0.247 0h-63.987c-0.089 0-0.195 0-0.3 0-55.955 0-101.356 45.191-101.694 101.067v124.341h-288.277v-124.309c-0.327-55.905-45.722-101.099-101.673-101.099-0.113 0-0.226 0-0.339 0.001h-63.983c-0.070 0-0.152 0-0.235 0-55.848 0-101.126 45.256-101.163 101.095v123.864c-49.438-1.699-88.898-42.070-89.131-91.711v-725.932c0-0.026 0-0.056 0-0.087 0-50.766 41.008-91.953 91.706-92.244h817.82c50.731 0.351 91.722 41.552 91.733 92.33v725.932c-0.243 49.633-39.664 89.979-88.908 91.708l-0.159 0.004zM882.453 73.536c0-21.915-17.765-39.68-39.68-39.68v0h-686.016c-21.915 0-39.68 17.765-39.68 39.68v0 374.976c0 21.915 17.765 39.68 39.68 39.68v0h686.016c21.915 0 39.68-17.765 39.68-39.68v0-374.976zM190.293 687.424h63.275c0.006 0 0.014 0 0.021 0 19.193 0 34.752 15.559 34.752 34.752v0 203.051c0 19.205-15.569 34.773-34.773 34.773v0h-63.275c-19.205 0-34.773-15.569-34.773-34.773v0-203.072c0.012-19.184 15.567-34.731 34.752-34.731 0.008 0 0.015 0 0.023 0h-0.001zM745.984 687.424h63.275c0.006 0 0.014 0 0.021 0 19.193 0 34.752 15.559 34.752 34.752v0 203.051c0 19.205-15.569 34.773-34.773 34.773h-63.275c-19.205 0-34.773-15.569-34.773-34.773v0-203.072c0.012-19.184 15.567-34.731 34.752-34.731 0.008 0 0.015 0 0.023 0h-0.001z" />
<glyph unicode="&#xe906;" glyph-name="calender-time" d="M439.467 228.267c0 161.414 130.852 292.267 292.267 292.267s292.267-130.852 292.267-292.267c0-161.414-130.852-292.267-292.267-292.267v0c-161.341 0.182-292.084 130.925-292.267 292.249v0.018zM525.973 228.267c0-113.638 92.122-205.76 205.76-205.76s205.76 92.122 205.76 205.76c0 113.638-92.122 205.76-205.76 205.76v0c-113.594-0.121-205.648-92.168-205.781-205.747v-0.013zM380.715-34.645h-264.043c-0.070 0-0.152 0-0.235 0-64.308 0-116.444 52.114-116.48 116.413v683.758c0 64.468 52.25 116.733 116.712 116.757h46.68v77.717h77.717v-77.675h512.704v77.675h77.717v-77.675h46.677c64.465-0.024 116.715-52.289 116.715-116.757v0-322.005c-22.285 26.742-47.883 49.675-76.415 68.525l-1.302 0.808v81.664h-839.467v-512.747c0.072-21.508 17.489-38.925 38.99-38.997h330.418c19.531-29.789 42.449-55.304 68.672-76.957l0.576-0.462zM77.675 765.525v-92.992h839.467v92.992c-0.012 21.533-17.465 38.985-38.996 38.997h-46.657v-77.675h-77.717v77.675h-512.704v-77.675h-77.717v77.675h-46.656c0 0 0 0 0 0-21.519 0-38.97-17.421-39.019-38.929v-0.005zM686.763 184.107v188.245h86.784v-101.76h73.493v-86.507z" />
<glyph unicode="&#xe907;" glyph-name="chat" d="M666.389 721.259c-58.596 117.116-177.641 196.119-315.138 196.119-193.55 0-350.536-156.546-351.251-349.928v-0.068c-0.001-0.303-0.002-0.662-0.002-1.021 0-53.988 12.357-105.091 34.396-150.633l-0.901 2.065-32.896-164.565c-0.367-1.761-0.577-3.784-0.577-5.857 0-16.577 13.439-30.016 30.016-30.016 2.053 0 4.059 0.206 5.996 0.599l-0.193-0.033 166.549 32.939c19.811-9.681 42.966-18.020 67.109-23.821l2.352-0.477c-5.567 25.349-8.757 54.467-8.757 84.329 0 224.166 179.711 406.358 402.92 410.365l0.375 0.005zM990.571 161.771c4.793 9.773 9.842 22.014 14.194 34.581l0.739 2.453h-1.088c11.684 33.45 18.433 72.011 18.433 112.148 0 187.589-147.419 340.746-332.725 349.942l-0.822 0.033c-4.747 0.23-10.309 0.361-15.903 0.361-193.285 0-349.973-156.688-349.973-349.973 0-192.966 156.171-349.455 349.016-349.972h0.050c0.177 0 0.385-0.001 0.594-0.001 53.981 0 105.076 12.356 150.611 34.395l-2.064-0.901c182.4-36.053 168.192-33.493 172.373-33.493 16.569 0.011 29.998 13.445 29.998 30.016 0 2.076-0.211 4.103-0.612 6.060l0.033-0.194z" />
<glyph unicode="&#xe908;" glyph-name="chat-invert" d="M666.389 731.925c-58.596 117.116-177.641 196.119-315.138 196.119-193.55 0-350.536-156.546-351.251-349.928v-0.068c-0.001-0.303-0.002-0.662-0.002-1.021 0-53.988 12.357-105.091 34.396-150.633l-0.901 2.065-32.896-164.565c-0.367-1.761-0.577-3.784-0.577-5.857 0-16.577 13.439-30.016 30.016-30.016 2.053 0 4.059 0.206 5.996 0.599l-0.193-0.033 166.549 32.939c19.811-9.681 42.966-18.020 67.109-23.821l2.353-0.477c-5.567 25.349-8.757 54.467-8.757 84.329 0 224.166 179.711 406.358 402.92 410.365l0.375 0.005zM990.571 172.416c4.794 9.774 9.843 22.016 14.195 34.583l0.739 2.452h-1.088c11.684 33.45 18.433 72.011 18.433 112.147 0 187.596-147.43 340.758-332.746 349.943l-0.822 0.032c-4.747 0.23-10.309 0.361-15.903 0.361-193.285 0-349.973-156.688-349.973-349.973 0-192.966 156.171-349.455 349.016-349.972h0.050c0.175 0 0.382-0.001 0.589-0.001 53.983 0 105.079 12.356 150.616 34.395l-2.064-0.901c182.4-36.053 168.192-33.493 172.373-33.493 16.569 0.011 29.998 13.445 29.998 30.016 0 2.076-0.211 4.103-0.612 6.060l0.033-0.194z" />
<glyph unicode="&#xe909;" glyph-name="check" d="M1024 451.563l-115.925 128.704 18.155 172.309-169.515 35.883-86.464 150.208-158.251-70.72-158.251 70.72-86.464-150.208-169.515-35.883 18.155-172.309-115.925-128.704 115.925-128.64-18.155-172.309 169.515-35.883 86.464-150.208 158.251 70.677 158.251-70.677 86.464 150.208 169.515 35.883-18.155 172.309zM726.635 563.669l-257.003-288-178.581 178.667 42.475 42.475 133.675-133.632 214.635 240.512z" />
<glyph unicode="&#xe90a;" glyph-name="check-list" d="M215.317-64c-1.337-0.061-2.904-0.096-4.479-0.096-55.791 0-101.35 43.804-104.161 98.896l-0.010 0.251v688.149c2.843 57.997 50.234 104.026 108.523 104.682l0.064 0.001h83.413v33.003c0 15.915 14.080 27.008 34.133 27.008h64.299c18.165 42.675 59.725 72.061 108.154 72.107h0.006c1.451 0 2.859 0 4.267 0 1.565 0.076 3.399 0.119 5.244 0.119 48.139 0 89.382-29.527 106.606-71.459l0.279-0.767h65.408c17.067 0 35.413-8.533 35.413-27.008v-33.003h83.435c58.357-0.656 105.754-46.683 108.598-104.426l0.010-0.256v-688.149c-2.81-55.34-48.365-99.147-104.151-99.147-1.575 0-3.142 0.035-4.7 0.104l0.222-0.008zM170.304 722.496v-687.445c0-21.888 23.36-35.413 45.013-35.413h590.571c21.632 0 45.013 13.525 45.013 35.413v687.445c-2.267 23.268-21.528 41.361-45.1 41.77l-0.041 0.001h-83.2v-54.464c-2.4-16.819-16.706-29.607-33.999-29.607-0.572 0-1.141 0.014-1.707 0.042l0.080-0.003h-353.792c-0.492-0.026-1.068-0.041-1.647-0.041-17.107 0-31.161 13.076-32.711 29.778l-0.010 0.13v54.059h-83.456c-23.534-0.451-42.719-18.476-44.998-41.473l-0.015-0.191zM362.304 743.829h296.533v80.448h-61.184c-15.601 1.172-28.204 12.67-31.049 27.627l-0.034 0.213c-5.926 26.853-29.091 46.798-57.073 47.741l-0.1 0.003c-28.397-0.889-51.906-20.783-58.283-47.344l-0.085-0.422c-2.76-14.66-14.591-25.891-29.338-27.717l-0.166-0.017h-59.157zM307.051 86.059c-0.009 0-0.020 0-0.031 0-8.628 0-16.385 3.728-21.749 9.66l-0.023 0.025-49.067 50.261c-5.674 5.917-9.167 13.964-9.167 22.827s3.493 16.909 9.178 22.838l-0.011-0.012 0.277 0.341c5.594 5.158 13.092 8.326 21.33 8.341h0.003c9.084-0.017 17.278-3.817 23.092-9.908l0.012-0.012 26.965-27.989 71.424 67.968c5.638 5.173 13.186 8.344 21.475 8.344 8.988 0 17.105-3.728 22.889-9.721l0.009-0.009c0.597-0.555 1.152-1.152 1.685-1.707 4.97-5.43 8.015-12.693 8.015-20.668 0-8.91-3.802-16.933-9.871-22.534l-0.021-0.019-93.461-88.661c-5.643-5.75-13.464-9.346-22.124-9.45h-0.020zM486.613 116.075c-17.567 0-31.808 14.241-31.808 31.808s14.241 31.808 31.808 31.808h276.053c17.567 0 31.808-14.241 31.808-31.808s-14.241-31.808-31.808-31.808v0zM307.051 278.208c-8.633 0.002-16.397 3.719-21.781 9.64l-0.022 0.024-49.067 50.304c-5.674 5.917-9.167 13.964-9.167 22.827s3.493 16.909 9.178 22.838l-0.011-0.012 0.277 0.171c5.635 5.175 13.182 8.346 21.469 8.346 9.079 0 17.269-3.806 23.062-9.911l0.013-0.014 26.965-27.989 71.317 67.968c5.638 5.173 13.186 8.344 21.475 8.344 8.988 0 17.105-3.728 22.889-9.721l0.009-0.009c0.597-0.555 1.173-1.152 1.707-1.749 4.945-5.424 7.974-12.67 7.974-20.623 0-8.911-3.802-16.935-9.873-22.536l-0.021-0.019-93.461-88.661c-5.642-5.752-13.463-9.349-22.125-9.45h-0.019zM486.613 308.224c-17.567 0-31.808 14.241-31.808 31.808s14.241 31.808 31.808 31.808h276.053c17.567 0 31.808-14.241 31.808-31.808s-14.241-31.808-31.808-31.808v0zM307.051 470.357c-8.633 0.002-16.397 3.719-21.781 9.64l-0.022 0.024-49.067 50.304c-5.669 5.919-9.159 13.965-9.159 22.827s3.49 16.907 9.171 22.839l-0.011-0.012 0.384 0.363c5.635 5.175 13.182 8.346 21.469 8.346 9.079 0 17.269-3.806 23.062-9.911l0.013-0.014 26.965-27.989 71.317 67.968c5.638 5.173 13.186 8.344 21.475 8.344 8.988 0 17.105-3.728 22.889-9.721l0.009-0.009c0.597-0.555 1.173-1.152 1.707-1.749 4.945-5.424 7.974-12.67 7.974-20.623 0-8.911-3.802-16.935-9.873-22.536l-0.021-0.019-93.461-88.661c-5.642-5.752-13.463-9.349-22.125-9.45h-0.019zM486.613 500.373c-17.567 0-31.808 14.241-31.808 31.808s14.241 31.808 31.808 31.808h276.053c17.567 0 31.808-14.241 31.808-31.808s-14.241-31.808-31.808-31.808v0z" />
<glyph unicode="&#xe90b;" glyph-name="clipboard" horiz-adv-x="922" d="M819.2 857.6h-214.272c-21.412 60.118-77.834 102.38-144.128 102.38s-122.716-42.262-143.796-101.314l-0.332-1.066h-214.272c-56.554 0-102.4-45.846-102.4-102.4v0-716.8c0-56.554 45.846-102.4 102.4-102.4h716.8c56.554 0 102.4 45.846 102.4 102.4v0 716.8c0 56.554-45.846 102.4-102.4 102.4v0zM460.8 857.6c28.277 0 51.2-22.923 51.2-51.2s-22.923-51.2-51.2-51.2c-28.277 0-51.2 22.923-51.2 51.2v0c0 28.277 22.923 51.2 51.2 51.2v0zM358.4 140.8l-204.8 204.8 72.533 72.533 132.267-132.267 337.067 337.067 72.533-72.533z" />
<glyph unicode="&#xe90c;" glyph-name="correct" d="M392.107 73.536c-9.46-9.466-22.531-15.321-36.971-15.321s-27.511 5.855-36.97 15.321l-295.19 295.254c-14.21 14.188-23.001 33.801-23.001 55.467s8.791 41.278 23 55.466l36.972 36.972c14.188 14.21 33.801 23.001 55.467 23.001s41.278-8.791 55.466-23l184.3-184.3 497.984 497.963c14.188 14.21 33.801 23.001 55.467 23.001s41.278-8.791 55.466-23l36.908-36.95c14.21-14.188 23.001-33.801 23.001-55.467s-8.791-41.278-23-55.466l-0.001-0.001z" />
<glyph unicode="&#xe90d;" glyph-name="correct-invert" d="M511.936 960c-282.77 0-512-229.23-512-512s229.23-512 512-512c282.77 0 512 229.23 512 512v0c-0.327 282.638-229.362 511.672-511.968 512h-0.032zM733.589 552.917l-268.16-268.139c-7.462-7.476-17.777-12.101-29.173-12.101s-21.712 4.625-29.173 12.1l-116.63 116.63c-7.471 7.468-12.092 17.786-12.092 29.184 0 22.79 18.475 41.265 41.265 41.265 11.392 0 21.706-4.617 29.173-12.081l87.467-87.467 238.933 238.933c7.52 7.821 18.071 12.68 29.758 12.68 22.787 0 41.259-18.472 41.259-41.259 0-11.702-4.872-22.266-12.698-29.775l-0.014-0.014z" />
<glyph unicode="&#xe90e;" glyph-name="cross" d="M995.285 102.699c17.67-17.67 28.6-42.081 28.6-69.045 0-53.928-43.717-97.645-97.645-97.645-26.964 0-51.375 10.929-69.045 28.6l-345.237 345.323-345.088-345.237c-17.67-17.67-42.081-28.6-69.045-28.6-53.928 0-97.645 43.717-97.645 97.645 0 26.964 10.929 51.375 28.6 69.045l345.024 345.237-345.173 345.173c-17.67 17.67-28.6 42.081-28.6 69.045 0 53.928 43.717 97.645 97.645 97.645 26.964 0 51.375-10.929 69.045-28.6l345.237-345.173 345.216 345.216c17.672 17.667 42.083 28.593 69.045 28.593 53.936 0 97.66-43.724 97.66-97.66 0-26.973-10.935-51.393-28.614-69.066l-345.216-345.174z" />
<glyph unicode="&#xe90f;" glyph-name="dashboard" d="M627.883-64c-44.21 0.049-80.037 35.875-80.085 80.081v189.637c0.012 44.238 35.852 80.101 80.081 80.149h316.037c44.233-0.049 80.073-35.911 80.085-80.148v-189.633c-0.049-44.21-35.875-80.037-80.081-80.085h-0.005zM623.616 205.717v-189.632c0-2.356 1.91-4.267 4.267-4.267h316.032c2.356 0 4.267 1.91 4.267 4.267v0 189.632c0 2.356-1.91 4.267-4.267 4.267v0h-316.032c-2.319-0.048-4.181-1.939-4.181-4.266 0 0 0-0.001 0-0.001v0zM80.085-64c-44.21 0.049-80.037 35.875-80.085 80.081v442.458c0.049 44.21 35.875 80.037 80.081 80.085h316.037c44.21-0.049 80.037-35.875 80.085-80.081v-442.458c-0.049-44.21-35.875-80.037-80.081-80.085h-0.005zM75.819 458.539v-442.453c0-2.356 1.91-4.267 4.267-4.267v0h316.032c2.356 0 4.267 1.91 4.267 4.267v0 442.453c0 2.356-1.91 4.267-4.267 4.267h-316.032c-2.319-0.048-4.181-1.939-4.181-4.266 0 0 0-0.001 0-0.001v0zM627.797 357.376c-44.21 0.049-80.037 35.875-80.085 80.081v442.458c0.049 44.24 35.924 80.085 80.171 80.085h316.032c44.21-0.049 80.037-35.875 80.085-80.081v-442.458c-0.049-44.21-35.875-80.037-80.081-80.085h-0.005zM623.531 879.915v-442.453c0-2.356 1.91-4.267 4.267-4.267v0h316.117c2.356 0 4.267 1.91 4.267 4.267v0 442.453c0 2.356-1.91 4.267-4.267 4.267v0h-316.032c-2.319-0.048-4.181-1.939-4.181-4.266 0 0 0-0.001 0-0.001v0zM80.085 610.133c-44.233 0.049-80.073 35.911-80.085 80.148v189.633c0.049 44.21 35.875 80.037 80.081 80.085h316.037c44.21-0.049 80.037-35.875 80.085-80.081v-189.637c-0.012-44.238-35.852-80.101-80.081-80.149h-0.005zM75.819 879.851v-189.632c0-2.356 1.91-4.267 4.267-4.267v0h316.032c2.356 0 4.267 1.91 4.267 4.267v0 189.696c0 2.356-1.91 4.267-4.267 4.267h-316.032c-2.319-0.048-4.181-1.939-4.181-4.266 0 0 0-0.001 0-0.001v0z" />
<glyph unicode="&#xe910;" glyph-name="down-arrow" d="M472.043 161.408l-455.68 455.595c-10.114 10.15-16.367 24.153-16.367 39.616s6.253 29.466 16.369 39.618l33.555 33.555c10.145 10.124 24.149 16.385 39.616 16.385s29.471-6.261 39.617-16.386l382.634-382.57 383.083 383.083c10.152 10.109 24.154 16.358 39.616 16.358s29.464-6.249 39.618-16.36l33.534-33.555c10.114-10.15 16.367-24.153 16.367-39.616s-6.253-29.466-16.369-39.618l-456.105-456.126c-10.207-10.093-24.247-16.328-39.744-16.328s-29.537 6.235-39.749 16.334l0.005-0.005z" />
<glyph unicode="&#xe911;" glyph-name="down-arrow-invert" d="M512 79.232l-512 731.435h1024z" />
<glyph unicode="&#xe912;" glyph-name="edit" d="M810.667 448.064c-23.564 0-42.667-19.103-42.667-42.667v0-341.333c0-23.564-19.103-42.667-42.667-42.667v0h-597.333c-23.564 0-42.667 19.103-42.667 42.667v0 597.333c0 23.564 19.103 42.667 42.667 42.667v0h341.333c23.564 0 42.667 19.103 42.667 42.667s-19.103 42.667-42.667 42.667v0h-341.333c-70.658-0.085-127.915-57.342-128-127.992v-597.341c0.085-70.658 57.342-127.915 127.992-128h597.342c70.658 0.085 127.915 57.342 128 127.992v341.341c0 23.564-19.103 42.667-42.667 42.667v0zM400.021 486.912c-2.878-2.892-4.942-6.596-5.82-10.739l-0.025-0.141-30.165-150.869c-0.274-1.283-0.431-2.756-0.431-4.267 0-11.782 9.551-21.333 21.333-21.333 0.017 0 0.033 0 0.050 0h-0.003c0.037 0 0.082 0 0.126 0 1.466 0 2.896 0.156 4.274 0.451l-0.133-0.024 150.827 30.165c4.304 0.878 8.028 2.947 10.922 5.845v0l337.579 337.579-150.827 150.827zM992.747 928.811c-19.302 19.296-45.964 31.231-75.413 31.231s-56.112-11.935-75.414-31.231l-59.050-59.050 150.827-150.827 59.051 59.051c19.296 19.302 31.231 45.964 31.231 75.413s-11.935 56.112-31.231 75.414v0z" />
<glyph unicode="&#xe913;" glyph-name="edit-pencil" d="M42.667 29.013h930.901v-93.013h-930.901v93.013zM710.101 960l-574.421-573.867v-263.296h263.467l574.421 573.867zM360.512 215.872h-131.733v131.627l481.323 480.875 131.733-131.627z" />
<glyph unicode="&#xe914;" glyph-name="envelope" d="M21.376 769.685c140.523-119.019 387.136-328.405 459.605-393.707 7.808-8.149 18.779-13.213 30.933-13.213s23.125 5.064 30.919 13.198l0.015 0.015c72.533 65.344 319.147 274.773 459.691 393.792 4.631 3.938 7.549 9.769 7.549 16.282 0 4.985-1.71 9.571-4.575 13.203l0.034-0.045c-15.639 20.023-39.779 32.778-66.9 32.789h-853.335c-27.159-0.012-51.329-12.803-66.823-32.685l-0.142-0.189c-2.826-3.585-4.533-8.167-4.533-13.147 0-6.519 2.924-12.354 7.531-16.268l0.031-0.025zM1011.627 705.28c-2.624 1.242-5.701 1.967-8.947 1.967-5.274 0-10.101-1.914-13.825-5.085l0.030 0.025c-155.861-132.117-354.773-301.483-417.365-357.867-15.464-14.734-36.444-23.8-59.541-23.8s-44.078 9.066-59.576 23.833l0.035-0.033c-66.709 60.096-290.133 250.005-417.323 357.824-3.691 3.139-8.513 5.049-13.781 5.049-11.782 0-21.333-9.551-21.333-21.333 0-0.012 0-0.025 0-0.037v0.002-536.491c0-47.128 38.205-85.333 85.333-85.333v0h853.333c47.128 0 85.333 38.205 85.333 85.333v0 536.491c0 0.028 0 0.062 0 0.095 0 8.531-5.007 15.892-12.243 19.305l-0.13 0.055z" />
<glyph unicode="&#xe915;" glyph-name="filter" d="M977.301 960h-912.917c-0.031 0-0.067 0-0.104 0-16.531 0-30.878-9.355-38.034-23.059l-0.113-0.237c-3.023-5.769-4.797-12.603-4.797-19.851 0-9.536 3.070-18.355 8.275-25.522l-0.087 0.126 334.805-471.659c11.686-15.639 18.721-35.347 18.752-56.697v-384.114c-0.001-0.095-0.001-0.207-0.001-0.32 0-23.564 19.103-42.667 42.667-42.667 0 0 0.001 0 0.001 0v0c6.076 0.009 11.86 1.247 17.12 3.479l-0.288-0.109 187.947 71.659c16.439 5.489 28.079 20.741 28.079 38.712 0 0.513-0.009 1.024-0.028 1.532l0.002-0.073v311.915c0.035 21.357 7.070 41.063 18.932 56.956l-0.18-0.252 0.341 0.469 334.464 471.168c5.106 7.034 8.167 15.839 8.167 25.36 0 7.263-1.782 14.11-4.932 20.127l0.114-0.239c-7.263 13.941-21.606 23.296-38.134 23.296-0.019 0-0.037 0-0.056 0h0.003z" />
<glyph unicode="&#xe916;" glyph-name="folder" d="M833.259 654.464h-369.451l-73.408 87.339c-2.317 2.776-5.779 4.529-9.649 4.529-0.14 0-0.28-0.002-0.419-0.007l0.020 0.001h-298.133c-45.474-0.339-82.208-37.275-82.219-82.794v-537.196c0.049-45.671 37.059-82.682 82.726-82.731h750.533c45.671 0.049 82.682 37.059 82.731 82.726v445.466c-0.085 45.644-37.082 82.618-82.726 82.667h-0.005zM941.781 761.472h-369.536l-73.493 87.339c-2.317 2.776-5.779 4.529-9.649 4.529-0.14 0-0.28-0.002-0.419-0.007l0.020 0.001h-297.963c-41.657-0.076-76.084-30.928-81.762-71.027l-0.051-0.439h271.765c0.061 0 0.134 0 0.206 0 14.703 0 27.866-6.599 36.686-16.998l0.057-0.069 62.741-74.667h352.875c65.311-0.073 118.239-52.986 118.336-118.284v-420.447c41.067 5.247 72.495 39.961 72.533 82.023v445.423c-0.108 45.491-36.878 82.358-82.321 82.624h-0.025z" />
<glyph unicode="&#xe917;" glyph-name="goal" d="M116.971 68.736c-7.758-12.782-12.349-28.233-12.349-44.755 0-48.2 39.074-87.275 87.275-87.275 31.070 0 58.347 16.235 73.812 40.685l0.212 0.358 33.28 54.507c-56.997 23.039-105.868 54.661-147.578 93.822l0.25-0.232zM790.976 125.845c-41.461-38.937-90.341-70.561-144.21-92.461l-3.139-1.128 33.301-54.507c15.442-25.961 43.352-43.086 75.261-43.086 48.2 0 87.275 39.074 87.275 87.275 0 17.366-5.072 33.548-13.816 47.144l0.208-0.346zM681.408 634.539c36.465-45.484 58.522-103.887 58.522-167.441 0-148.454-120.346-268.8-268.8-268.8s-268.8 120.346-268.8 268.8c0 148.454 120.346 268.8 268.8 268.8 63.554 0 121.957-22.057 167.971-58.932l-0.53 0.411 66.368 66.368-11.605 65.237c-62.702 41.292-139.595 65.869-222.228 65.869-225.226 0-407.808-182.582-407.808-407.808s182.582-407.808 407.808-407.808c225.226 0 407.808 182.582 407.808 407.808 0 82.557-24.531 159.384-66.703 223.589l0.952-1.544-65.344 11.819zM471.424 437.141c-16.693 0.034-30.213 13.574-30.213 30.272 0 8.366 3.394 15.939 8.879 21.418v0l34.944 34.944c-4.083 1.026-8.771 1.615-13.596 1.615-32.059 0-58.048-25.989-58.048-58.048s25.989-58.048 58.048-58.048c32.059 0 58.048 25.989 58.048 58.048 0 4.825-0.589 9.513-1.698 13.995l0.084-0.399-34.944-34.944c-5.451-5.47-12.991-8.854-21.322-8.854-0.064 0-0.128 0-0.192 0.001h0.010zM589.973 467.413c0-0.055 0-0.12 0-0.186 0-65.567-53.153-118.72-118.72-118.72s-118.72 53.153-118.72 118.72c0 65.567 53.153 118.72 118.72 118.72 22.016 0 42.632-5.993 60.307-16.436l-0.552 0.302 64.384 64.405c-34.207 25.659-77.37 41.089-124.137 41.089-114.911 0-208.064-93.153-208.064-208.064s93.153-208.064 208.064-208.064c114.911 0 208.064 93.153 208.064 208.064 0 46.767-15.43 89.931-41.476 124.677l0.387-0.54-64.405-64.384c10.15-17.045 16.149-37.585 16.149-59.526 0-0.020 0-0.041 0-0.061v0.003zM813.099 689.067l30.677-5.547c1.621-0.312 3.485-0.491 5.392-0.491 0.002 0 0.004 0 0.006 0v0c8.33 0.027 15.865 3.404 21.334 8.854l83.498 83.498c5.465 5.479 8.845 13.041 8.845 21.393 0 14.82-10.642 27.154-24.7 29.778l-0.187 0.029-90.923 16.448-16.469 91.989c-2.638 14.264-14.981 24.924-29.814 24.924-8.348 0-15.908-3.377-21.387-8.839l-83.498-83.498c-5.475-5.478-8.861-13.043-8.861-21.4 0-1.892 0.174-3.743 0.506-5.538l-0.029 0.186 5.717-32c48.18-31.674 88.182-71.642 118.94-118.249l0.953-1.537z" />
<glyph unicode="&#xe918;" glyph-name="headphones" horiz-adv-x="964" d="M482.133-64c-52.444 0.121-94.912 42.664-94.912 95.125 0 0 0 0 0 0v0c0.073 52.385 42.525 94.83 94.906 94.891h63.878c0.061 0 0.134 0 0.207 0 40.3 0 74.726-25.145 88.447-60.601l0.22-0.647c29.905 5.542 56.17 18.33 77.783 36.477l-0.258-0.211c33.851 30.976 55.688 74.597 57.99 123.332l0.015 0.402h-29.995c-17.020 0.012-30.815 13.806-30.827 30.826v288.705c0 17.029 13.799 30.836 30.826 30.848h31.34v33.259c0 165.333-117.717 290.133-273.835 290.133h-32.149c-156.117 0-273.835-124.693-273.835-290.133v-33.259h31.339c17.032-0.012 30.836-13.816 30.848-30.847v-288.918c-0.012-17.028-13.819-30.827-30.848-30.827h-78.549c-79.868 0.097-144.592 64.798-144.725 144.648v60.92c0.244 74.776 56.926 136.238 129.665 144.030l0.639 0.055v34.133c-0.017 1.305-0.027 2.846-0.027 4.389 0 93.902 35.814 179.44 94.528 243.698l-0.251-0.279c59.617 63.977 144.363 103.865 238.425 103.865 1.064 0 2.126-0.005 3.188-0.015l-0.162 0.001h32.149c0.903 0.009 1.97 0.014 3.039 0.014 94.075 0 178.832-39.896 238.275-103.691l0.18-0.195c58.45-63.973 94.256-149.499 94.256-243.388 0-1.554-0.010-3.106-0.029-4.655l0.002 0.235v-34.133c73.253-7.615 129.878-69.021 129.878-143.653 0-0.092 0-0.184 0-0.276v0.014-60.885c-0.14-75.155-57.408-136.891-130.686-144.102l-0.599-0.048c-8.533-110.933-64.619-166.165-110.421-192.96-24.558-14.332-53.252-24.766-83.812-29.579l-1.393-0.181c-12.557-38.814-48.332-66.41-90.569-66.517h-0.013zM448.875 30.891c0.012-18.363 14.895-33.247 33.258-33.259h64.001c18.368 0.012 33.256 14.893 33.28 33.256v0.002c-0.024 18.37-14.91 33.256-33.278 33.28h-64.002c-18.338-0.061-33.183-14.935-33.195-33.279v-0.001zM771.413 286.336h47.744c45.85 0.073 82.999 37.222 83.072 83.065v60.914c-0.073 45.85-37.222 82.999-83.065 83.072h-47.751zM61.995 430.315v-60.907c0.073-45.85 37.222-82.999 83.065-83.072h47.751v227.051h-47.744c-45.806-0.121-82.902-37.24-82.987-83.042v-0.008z" />
<glyph unicode="&#xe919;" glyph-name="heart" d="M752 874.688c-121.28 0-199.211-79.36-240-150.677-40.789 71.317-118.72 150.677-240 150.677-1.267 0.022-2.762 0.034-4.259 0.034-147.912 0-267.819-119.907-267.819-267.819 0-2.27 0.028-4.533 0.084-6.789l-0.007 0.334c0-169.536 147.925-284.992 368.832-459.819 108.16-85.525 115.2-92.032 143.168-114.581 22.891 18.411 35.584 29.504 143.168 114.581 220.907 174.805 368.832 290.261 368.832 459.819 0.050 1.922 0.078 4.185 0.078 6.455 0 147.912-119.907 267.819-267.819 267.819-1.498 0-2.992-0.012-4.484-0.037l0.225 0.003z" />
<glyph unicode="&#xe91a;" glyph-name="info" d="M514.005 960c-0.005 0-0.010 0-0.016 0-282.467 0-511.718-227.848-513.988-509.78l-0.001-0.215c1.933-283.097 230.909-512.073 513.821-514.004l0.184-0.001c282.77 0 512 229.23 512 512s-229.23 512-512 512v0zM574.016 176c-0.635-32.653-27.255-58.879-60-58.879s-59.365 26.227-59.999 58.82l-0.001 0.059v304c0.635 32.653 27.255 58.879 60 58.879s59.365-26.227 59.999-58.82l0.001-0.059zM514.005 659.989c-33.143 0-60.011 26.868-60.011 60.011s26.868 60.011 60.011 60.011c33.143 0 60.011-26.868 60.011-60.011 0-0.008 0-0.015 0-0.023v0.001c-0.049-33.119-26.89-59.953-60.007-59.989h-0.003z" />
<glyph unicode="&#xe91b;" glyph-name="insert-picture-icon" d="M908.245 928h-792.427c-63.963-0.061-115.794-51.915-115.819-115.88v-728.279c0.061-63.928 51.886-115.73 115.816-115.755h792.429c63.915 0.036 115.718 51.84 115.755 115.751v728.28c0 63.955-51.809 115.81-115.748 115.883h-0.007zM662.165 755.669c0.032 0 0.069 0 0.107 0 61.785 0 111.872-50.087 111.872-111.872s-50.087-111.872-111.872-111.872c-61.785 0-111.872 50.087-111.872 111.872v0c0 61.748 50.026 111.811 111.76 111.872h0.006zM871.915 75.136h-703.808c-1.567-0.275-3.371-0.432-5.212-0.432-17.473 0-31.637 14.165-31.637 31.637 0 7.041 2.3 13.545 6.19 18.801l-0.061-0.086 192 380.245c4.308 13.13 16.453 22.444 30.774 22.444 12.214 0 22.846-6.775 28.342-16.772l0.084-0.167 193.003-252.245c8.685-12.086 22.704-19.865 38.54-19.865 13.728 0 26.090 5.846 34.733 15.184l0.028 0.031 47.232 47.829c8.261 9.147 20.163 14.87 33.402 14.87 15.906 0 29.882-8.262 37.872-20.728l0.108-0.18 122.283-174.677c17.685-25.344 7.019-45.867-23.872-45.867z" />
<glyph unicode="&#xe91c;" glyph-name="insert-picture-square" d="M966.4 853.333h-908.8c-31.787-0.061-57.539-25.813-57.6-57.594v-706.801c0.061-31.787 25.813-57.539 57.594-57.6h908.806c31.787 0.061 57.539 25.813 57.6 57.594v706.801c-0.061 31.787-25.813 57.539-57.594 57.6h-0.006zM908.8 737.963v-520.363l-131.947 160.213c-2.683 3.198-6.682 5.218-11.152 5.218-3.19 0-6.141-1.028-8.537-2.772l0.042 0.029-153.493-112.064-263.744 256.576c-2.709 2.545-6.367 4.109-10.39 4.109-0.36 0-0.717-0.013-1.071-0.037l0.048 0.003c-4.361-0.459-8.099-2.788-10.443-6.16l-0.031-0.048-202.667-289.984v505.28zM562.475 521.621c0 51.77 41.968 93.739 93.739 93.739s93.739-41.968 93.739-93.739c0-51.77-41.968-93.739-93.739-93.739v0c-51.741 0.073-93.666 41.998-93.739 93.732v0.007z" />
<glyph unicode="&#xe91d;" glyph-name="invert-cross" d="M874.197 810.176c-92.636 92.546-220.563 149.781-361.859 149.781-282.77 0-512-229.23-512-512s229.23-512 512-512c141.295 0 269.223 57.235 361.863 149.785l-0.004-0.004c92.561 92.764 149.797 220.807 149.797 362.219s-57.236 269.455-149.806 362.228l0.009-0.009zM723.2 297.045c7.723-7.723 12.499-18.392 12.499-30.176 0-23.569-19.106-42.675-42.675-42.675-11.784 0-22.453 4.777-30.176 12.499l-150.848 150.933-150.848-150.891c-7.723-7.723-18.392-12.499-30.176-12.499-23.569 0-42.675 19.106-42.675 42.675 0 11.784 4.777 22.453 12.499 30.176l150.848 150.997-150.848 150.805c-7.735 7.725-12.521 18.402-12.521 30.197 0 23.569 19.106 42.675 42.675 42.675 11.774 0 22.434-4.768 30.155-12.478v0l150.891-150.933 150.891 150.933c7.721 7.71 18.381 12.478 30.155 12.478 23.569 0 42.675-19.106 42.675-42.675 0-11.795-4.785-22.472-12.52-30.197v0l-150.848-150.805z" />
<glyph unicode="&#xe91e;" glyph-name="invert-down-arrow" d="M512 79.253l-512 731.413h1024z" />
<glyph unicode="&#xe91f;" glyph-name="invert-play" d="M512-64.085c-281.525 0.4-509.59 228.713-509.59 510.293 0 281.827 228.466 510.293 510.293 510.293s510.293-228.466 510.293-510.293c0-210.083-126.952-390.516-308.325-468.765l-3.312-1.271c-58.473-25.451-126.59-40.257-198.166-40.257-0.42 0-0.84 0.001-1.26 0.002h0.066zM453.12 627.328c-0.107 0.002-0.233 0.003-0.36 0.003-10.843 0-20.082-6.867-23.606-16.489l-0.056-0.175c-4.523-4.569-7.317-10.857-7.317-17.797 0-0.013 0-0.026 0-0.040v0.002-305.067c-0.001-0.071-0.001-0.154-0.001-0.238 0-13.75 11.146-24.896 24.896-24.896 0.135 0 0.271 0.001 0.405 0.003h-0.020c5.554 0.033 10.686 1.81 14.884 4.811l-0.078-0.053 5.184 3.797c0.458 0.282 0.848 0.557 1.221 0.852l-0.026-0.020 212.693 154.453c6.489 4.659 10.666 12.183 10.666 20.683s-4.177 16.023-10.59 20.631l-0.076 0.052-212.693 154.667c-4.198 3.067-9.461 4.907-15.154 4.907-0.005 0-0.010 0-0.014 0h0.001z" />
<glyph unicode="&#xe920;" glyph-name="key" d="M927.488 863.488c-59.697 59.741-142.191 96.695-233.317 96.695-182.163 0-329.835-147.672-329.835-329.835 0-36.384 5.891-71.392 16.772-104.123l-0.671 2.329-371.648-371.648c-5.438-5.422-8.805-12.92-8.811-21.204v-169.708c0-0.013 0-0.028 0-0.043 0-16.554 13.42-29.973 29.973-29.973 0.015 0 0.030 0 0.045 0h169.726c0.013 0 0.029 0 0.045 0 8.268 0 15.752 3.36 21.16 8.788l42.433 42.454c5.4 5.423 8.738 12.903 8.738 21.162 0 1.233-0.074 2.449-0.219 3.643l0.014-0.144-5.248 45.696 63.168 5.952c14.368 1.34 25.711 12.682 27.042 26.932l0.009 0.119 5.952 63.168 45.589-5.312c1.105-0.147 2.382-0.23 3.68-0.23 7.624 0 14.574 2.89 19.812 7.634l-0.025-0.022c6.174 5.529 10.042 13.523 10.048 22.42v55.745h54.848c0.013 0 0.029 0 0.045 0 8.268 0 15.752 3.36 21.16 8.788l0.001 0.001 76.928 75.925c30.77-10.652 66.232-16.804 103.132-16.804 89.579 0 170.69 36.254 229.461 94.89l-0.006-0.006c59.635 59.76 96.512 142.251 96.512 233.355s-36.877 173.595-96.518 233.36l0.006-0.006zM842.645 651.349c-16.283-16.278-38.775-26.347-63.619-26.347-49.697 0-89.984 40.287-89.984 89.984s40.287 89.984 89.984 89.984c24.844 0 47.336-10.068 63.619-26.347v0c16.269-16.294 26.329-38.791 26.329-63.637s-10.061-47.343-26.331-63.638l0.001 0.001z" />
<glyph unicode="&#xe921;" glyph-name="laptop" d="M1022.741 215.765c-0.955 1.107-2.358 1.806-3.924 1.813h-1013.633c-2.872-0.004-5.198-2.333-5.198-5.205 0-0.271 0.021-0.537 0.061-0.797l-0.004 0.029c0.149-0.939 15.445-94.805 134.101-94.805h755.712c118.656 0 133.931 93.867 134.101 94.805 0.033 0.22 0.051 0.474 0.051 0.732 0 1.312-0.48 2.512-1.273 3.435l0.006-0.007zM588.224 149.632h-152.469v35.093h152.469zM110.485 254.144h803.029c11.617 0 21.035 9.418 21.035 21.035v0 493.099c0 11.617-9.418 21.035-21.035 21.035v0h-803.029c-11.617 0-21.035-9.418-21.035-21.035v0-493.227c0.073-11.562 9.462-20.907 21.034-20.907 0 0 0 0 0 0v0zM163.051 715.819h697.877v-388.16h-697.877z" />
<glyph unicode="&#xe922;" glyph-name="left-arrow" d="M229.675 487.957l455.595 455.68c10.15 10.114 24.153 16.367 39.616 16.367s29.466-6.253 39.618-16.369l33.555-33.555c10.124-10.145 16.385-24.149 16.385-39.616s-6.261-29.471-16.386-39.617l-382.57-382.634 383.083-383.083c10.109-10.152 16.358-24.154 16.358-39.616s-6.249-29.464-16.36-39.618l-33.555-33.534c-10.15-10.114-24.153-16.367-39.616-16.367s-29.466 6.253-39.618 16.369l-456.126 456.105c-10.093 10.207-16.328 24.247-16.328 39.744s6.235 29.537 16.334 39.749l-0.005-0.005z" />
<glyph unicode="&#xe923;" glyph-name="like" d="M106.88 513.109c-58.994-0.085-106.795-47.886-106.88-106.872v-342.045c0.085-58.994 47.886-106.795 106.872-106.88h128.264c24.218 0.019 46.534 8.149 64.382 21.819l-0.254-0.187v534.165zM1024 352.043c0 0.082 0 0.18 0 0.278 0 26.124-10.6 49.772-27.732 66.878l-0.001 0.001c17.258 18.764 27.838 43.906 27.838 71.52 0 3.497-0.17 6.954-0.501 10.364l0.034-0.433c-7.049 54.815-53.423 96.742-109.59 96.742-0.675 0-1.349-0.006-2.021-0.018l0.101 0.001h-264.299c18.413 50.319 30.635 108.511 34.061 169.055l0.073 1.611c0 92.544-78.805 170.667-128.256 170.667-29.201-0.454-56.055-10.134-77.872-26.244l0.368 0.26c-4.895-3.942-8-9.935-8-16.653 0-0.010 0-0.021 0-0.031v0.002-144.661l-123.136-266.176-5.12-2.603v-457.323c31.319-14.673 67.864-23.82 106.388-25.202l0.492-0.014h392.533c0.441-0.007 0.962-0.011 1.484-0.011 45.856 0 84.379 31.398 95.243 73.869l0.148 0.681c1.505 6.36 2.368 13.661 2.368 21.165 0 15.614-3.736 30.356-10.363 43.379l0.251-0.544c31.541 16.008 52.791 48.183 52.843 85.326v0.007c0 0.076 0 0.165 0 0.255 0 15.464-3.713 30.060-10.296 42.946l0.248-0.535c31.508 16.039 52.715 48.229 52.715 85.372 0 0.024 0 0.048 0 0.072v-0.004z" />
<glyph unicode="&#xe924;" glyph-name="location-pin" d="M520 960c-0.093 0-0.203 0-0.313 0-216.413 0-391.851-175.438-391.851-391.851 0-89.505 30.009-172.001 80.514-237.975l-0.691 0.941 295.317-395.115h34.133l295.232 395.115c49.709 65.011 79.649 147.441 79.649 236.864 0 216.497-175.496 392.004-391.989 392.021h-0.002zM520 437.995c-71.8 0-130.005 58.205-130.005 130.005s58.205 130.005 130.005 130.005c71.8 0 130.005-58.205 130.005-130.005v0c-0.073-71.771-58.235-129.932-129.998-130.005h-0.007z" />
<glyph unicode="&#xe925;" glyph-name="lock" d="M800 576h-32v128c0 141.385-114.615 256-256 256s-256-114.615-256-256v0-128h-32c-52.995-0.061-95.939-43.005-96-95.994v-448.006c0.061-52.995 43.005-95.939 95.994-96h576.006c52.995 0.061 95.939 43.005 96 95.994v448.006c-0.061 52.995-43.005 95.939-95.994 96h-0.006zM341.333 704c0 94.257 76.41 170.667 170.667 170.667s170.667-76.41 170.667-170.667v0-128h-341.333zM554.667 246.528v-97.195c0-23.564-19.103-42.667-42.667-42.667s-42.667 19.103-42.667 42.667v0 97.195c-25.687 15.029-42.667 42.482-42.667 73.901 0 47.128 38.205 85.333 85.333 85.333s85.333-38.205 85.333-85.333c0-31.419-16.98-58.872-42.264-73.683l-0.403-0.218z" />
<glyph unicode="&#xe926;" glyph-name="log-in" d="M931.072 959.36c-1.067 0-1.963 0.64-3.072 0.64h-458.667c-70.658-0.085-127.915-57.342-128-127.992v-42.675c0-23.564 19.103-42.667 42.667-42.667s42.667 19.103 42.667 42.667v0 42.667c0 23.564 19.103 42.667 42.667 42.667v0h198.784l-13.013-4.267c-33.905-11.964-57.765-43.728-57.771-81.066v-640.001h-128c-23.564 0-42.667 19.103-42.667 42.667v0 85.333c0 23.564-19.103 42.667-42.667 42.667s-42.667-19.103-42.667-42.667v0-85.333c0.085-70.658 57.342-127.915 127.992-128h128.008v-42.667c0-47.128 38.205-85.333 85.333-85.333v0c9.715 0.016 19.061 1.575 27.812 4.447l-0.633-0.18 256.341 85.333c33.926 11.945 57.808 43.716 57.813 81.066v768.001c-0.264 47.011-38.434 85.018-85.481 85.018-2.622 0-5.216-0.118-7.777-0.349l0.33 0.024zM456.832 563.499l-170.667 170.667c-7.721 7.718-18.386 12.492-30.165 12.492-23.561 0-42.661-19.097-42.667-42.657v-128.001h-170.667c-23.564 0-42.667-19.103-42.667-42.667s19.103-42.667 42.667-42.667v0h170.667v-128c0.005-23.56 19.106-42.658 42.667-42.658 11.78 0 22.445 4.774 30.165 12.492l170.667 170.667c7.718 7.721 12.492 18.386 12.492 30.165s-4.774 22.445-12.492 30.165v0z" />
<glyph unicode="&#xe927;" glyph-name="multiple-users" d="M617.941 726.763c47.511-29.966 80.199-79.722 86.518-137.409l0.074-0.831c18.613-8.9 40.457-14.098 63.514-14.098 82.91 0 150.123 67.212 150.123 150.123s-67.212 150.123-150.123 150.123c-82.132 0-148.858-65.955-150.105-147.79l-0.001-0.117zM519.552 419.264c82.916 0.024 150.123 67.246 150.123 150.165 0 82.934-67.231 150.165-150.165 150.165s-150.165-67.231-150.165-150.165v0c0.012-82.937 67.248-150.165 150.187-150.165 0.007 0 0.015 0 0.022 0h-0.001zM583.253 409.024h-127.424c-106.155-0.121-192.177-86.144-192.299-192.287v-155.851l0.405-2.432 10.667-3.371c77.993-26.024 167.822-41.388 261.132-42.152l0.372-0.002c141.333 0 223.232 40.299 228.267 42.859l10.027 5.077h1.067v155.861c-0.097 106.135-86.086 192.153-192.2 192.299h-0.014zM831.723 564.053h-126.443c-1.38-50.782-23.007-96.257-57.063-128.853l-0.068-0.065c95.065-28.997 163.056-115.862 163.2-218.628v-48.038c72.962 0.51 142.165 16.042 204.851 43.649l-3.315-1.302 10.027 5.077h1.088v155.904c-0.121 106.143-86.134 192.156-192.266 192.277h-0.011zM256 574.293c29.635 0.002 57.251 8.645 80.466 23.546l-0.594-0.357c7.689 48.493 33.187 89.947 69.453 118.239l0.413 0.31c0.149 2.816 0.427 5.589 0.427 8.533-0.061 82.888-67.269 150.059-150.165 150.059-82.934 0-150.165-67.231-150.165-150.165s67.231-150.165 150.165-150.165v0zM390.869 435.157c-33.935 32.505-55.505 77.685-57.081 127.905l-0.007 0.287c-4.693 0.341-9.323 0.725-14.101 0.725h-127.381c-106.147-0.121-192.165-86.132-192.299-192.265v-155.874l0.405-2.411 10.667-3.392c63.66-21.056 137.466-35.568 213.87-40.563l2.685-0.141v47.061c0.168 102.806 68.19 189.679 161.666 218.241l1.619 0.425z" />
<glyph unicode="&#xe928;" glyph-name="pdf" d="M217.92-64c-49.672 0.049-89.92 40.327-89.92 90.005 0 0.030 0 0.060 0 0.090v-0.005 843.989c0.049 49.642 40.278 89.871 89.915 89.92h430.17v-229.824c0-0.044 0-0.097 0-0.15 0-16.525 13.354-29.931 29.859-30.016h230.088v-673.92c0-0.032 0-0.069 0-0.107 0-49.652-40.214-89.911-89.849-89.984h-0.007zM597.547 260.267l36.053-62.357c14.372-24.581 40.638-40.832 70.698-40.832 45.078 0 81.621 36.543 81.621 81.621s-36.543 81.621-81.621 81.621h-72.085l-79.467 137.685 36.053 62.528c6.88 11.713 10.943 25.798 10.943 40.832 0 45.095-36.557 81.652-81.652 81.652-30.061 0-56.328-16.245-70.501-40.435l-0.209-0.385c-7.049-11.669-11.219-25.764-11.219-40.832s4.17-29.163 11.42-41.191l-0.201 0.359 35.883-62.507-79.424-137.664h-72.171c-0.022 0-0.048 0-0.074 0-45.102 0-81.664-36.562-81.664-81.664s36.562-81.664 81.664-81.664c30.102 0 56.401 16.287 70.563 40.53l0.209 0.387 36.139 62.315zM685.717 227.605l-18.923 32.661h37.589c0.123 0.003 0.268 0.004 0.413 0.004 7.928 0 14.836-4.364 18.455-10.82l0.055-0.107c1.853-3.116 2.949-6.87 2.949-10.88s-1.095-7.764-3.003-10.98l0.055 0.1c-3.87-6.556-10.886-10.892-18.918-10.923h-0.004c-7.992 0.001-14.957 4.396-18.611 10.901l-0.055 0.107zM312.768 227.605c-1.803 3.128-2.867 6.88-2.867 10.88s1.064 7.752 2.924 10.987l-0.057-0.107c3.722 6.566 10.663 10.925 18.622 10.925 0.106 0 0.211-0.001 0.317-0.002h37.616l-18.709-32.661c-3.849-6.569-10.873-10.911-18.912-10.911s-15.063 4.342-18.856 10.808l-0.056 0.103zM472.832 320l45.291 78.251 45.077-78.251zM499.243 550.4c-1.913 3.1-3.047 6.858-3.047 10.88s1.134 7.78 3.099 10.971l-0.052-0.091c3.801 6.572 10.796 10.923 18.808 10.923 0.025 0 0.051 0 0.076 0h-0.004c11.957-0.111 21.606-9.83 21.606-21.802 0-3.997-1.075-7.742-2.953-10.963l0.056 0.104-18.709-32.576zM707.371 759.253v183.339l182.997-183.339z" />
<glyph unicode="&#xe929;" glyph-name="pdf-upload" d="M944.128 309.077l-138.411 174.933v167.147l-263.488 182.037 41.835 119.573h-520.064v-1016.768h741.717v20.672c12.813 11.952 20.8 28.933 20.8 47.781 0 0.002 0 0.004 0 0.006v0 198.4h66.133c36.194 0 65.536 29.342 65.536 65.536 0 15.413-5.321 29.583-14.225 40.774l0.103-0.134zM749.205 273.259v-263.957h-122.965v263.957h-131.755l193.237 244.224 193.216-244.224zM657.216 960l-33.92-96.917 203.52-140.523z" />
<glyph unicode="&#xe92a;" glyph-name="profit-report" horiz-adv-x="870" d="M867.115 684.288c-1.949 4.078-4.585 7.526-7.793 10.337l-0.036 0.031-289.899 255.936c-3.311 2.915-7.208 5.261-11.48 6.831l-0.253 0.081c-4.14 1.576-8.928 2.491-13.928 2.496h-471.192c-1.175 0.072-2.549 0.113-3.933 0.113-36.339 0-66.094-28.191-68.588-63.896l-0.012-0.216v-896c2.506-35.922 32.261-64.113 68.6-64.113 1.384 0 2.758 0.041 4.121 0.121l-0.188-0.009h724.907c1.175-0.072 2.549-0.113 3.933-0.113 36.339 0 66.094 28.191 68.588 63.896l0.012 0.216v672c-0.033 4.476-1.085 8.698-2.934 12.457l0.075-0.169zM579.968 850.688l166.229-146.688h-166.229zM797.44 0h-724.907v896h434.944v-192c2.506-35.922 32.261-64.113 68.6-64.113 1.384 0 2.758 0.041 4.121 0.121l-0.188-0.009h217.429zM253.76 320c-0.597 0.037-1.294 0.058-1.996 0.058-18.164 0-33.035-14.1-34.264-31.951l-0.006-0.107v-192c2.232-18.228 17.617-32.206 36.267-32.206s34.034 13.978 36.249 32.029l0.018 0.177v192c-1.236 17.958-16.106 32.058-34.27 32.058-0.702 0-1.4-0.021-2.092-0.063l0.095 0.005zM616.235 576c-0.603 0.038-1.307 0.059-2.016 0.059-18.16 0-33.026-14.102-34.245-31.953l-0.006-0.106v-448c2.232-18.228 17.617-32.206 36.267-32.206s34.034 13.978 36.249 32.029l0.018 0.177v448c-1.224 17.957-16.090 32.059-34.25 32.059-0.709 0-1.414-0.022-2.112-0.064l0.096 0.005zM434.987 448c-0.603 0.038-1.307 0.059-2.016 0.059-18.16 0-33.026-14.102-34.245-31.953l-0.006-0.106v-320c2.232-18.228 17.617-32.206 36.267-32.206s34.034 13.978 36.249 32.029l0.018 0.177v320c-1.236 17.958-16.106 32.058-34.27 32.058-0.702 0-1.4-0.021-2.092-0.063l0.095 0.005z" />
<glyph unicode="&#xe92b;" glyph-name="qualified" d="M926.677 185.429v-223.829c0-14.138-11.462-25.6-25.6-25.6v0h-790.144c-14.138 0-25.6 11.462-25.6 25.6v0 223.829c0.177 124.151 87.727 227.804 204.446 252.773l1.698 0.304c41.515-95.531 122.112-160.469 214.528-160.469s173.013 64.939 214.528 160.469c118.417-25.273 205.967-128.926 206.144-253.058v-0.019zM543.872 663.296l308.309 122.453c6.573 2.658 11.127 8.987 11.127 16.381 0 7.166-4.277 13.332-10.418 16.086l-0.112 0.045-306.197 134.72c-9.825 4.434-21.301 7.017-33.38 7.017-11.643 0-22.726-2.4-32.78-6.733l0.538 0.206-320.277-135.168c-6.406-2.734-10.814-8.979-10.814-16.254 0-7.461 4.637-13.838 11.185-16.409l0.12-0.041 322.496-122.795c8.78-3.441 18.947-5.436 29.579-5.436 11.026 0 21.552 2.145 31.182 6.040l-0.558-0.199zM562.773 615.723c-14.661-5.996-31.675-9.476-49.502-9.476-17.144 0-33.537 3.219-48.606 9.085l0.913-0.313-142.272 54.080c-6.707-24.897-10.56-53.483-10.56-82.968 0-0.164 0-0.328 0-0.493v0.026c0-141.419 86.656-256.448 193.173-256.448s193.173 115.051 193.173 256.448c0 0.13 0 0.284 0 0.438 0 28.357-3.556 55.883-10.245 82.157l0.496-2.296z" />
<glyph unicode="&#xe92c;" glyph-name="question" d="M478.357-64c-34.837 0.036-63.068 28.267-63.104 63.101v68.27c0.036 34.837 28.267 63.068 63.101 63.104h49.475c34.812-0.024 63.031-28.214 63.104-63.012v-68.274c-0.012-34.871-28.259-63.141-63.121-63.189h-0.005zM478.357 198.123c-0.017 0-0.037 0-0.056 0-34.851 0-63.104 28.253-63.104 63.104 0 0.938 0.020 1.871 0.061 2.799l-0.005-0.132c0.307 44.138 10.504 85.82 28.482 123.041l-0.749-1.719c30.032 49.238 67.928 90.54 112.413 123.443l1.166 0.824c37.501 28.449 70.733 58.083 101.481 90.118l0.279 0.292c15.961 20.26 25.6 46.15 25.6 74.292 0 0.087 0 0.174 0 0.26v-0.013c0.001 0.159 0.001 0.348 0.001 0.536 0 38.683-17.554 73.266-45.132 96.217l-0.203 0.164c-30.543 25.22-70.091 40.516-113.212 40.516-3.243 0-6.466-0.087-9.666-0.257l0.447 0.019c-1.811 0.063-3.938 0.099-6.075 0.099-44.924 0-86.133-15.91-118.298-42.403l0.32 0.256c-24.482-21.616-43.376-48.999-54.611-80.050l-0.429-1.358c-9.288-24.029-32.205-40.762-59.031-40.762-2.752 0-5.462 0.176-8.121 0.518l0.315-0.033-91.157 11.307c-16.868 2.18-29.767 16.454-29.767 33.74 0 2.336 0.235 4.617 0.684 6.82l-0.037-0.219c13.188 70.359 49.574 130.579 100.764 173.824l0.441 0.363q97.92 86.272 256.875 86.272 167.36 0 266.24-87.467c59.837-48.318 98.035-121.37 98.921-203.372l0.001-0.148c-0.163-45.258-13.738-87.312-36.956-122.434l0.518 0.834q-36.501-57.408-155.52-156.011c-30.488-22.445-55.954-49.684-75.783-80.86l-0.719-1.209c-6.688-15.693-10.963-33.896-11.848-52.984l-0.013-0.349c-2.949-32.447-29.98-57.685-62.925-57.771h-0.009z" />
<glyph unicode="&#xe92d;" glyph-name="ribbon" d="M938.453 926.144c-8.765 12.474-20.871 22.064-35.021 27.556l-0.52 0.178c-8.743 3.87-18.941 6.123-29.664 6.123-0.041 0-0.082 0-0.123 0h-709.285c-0.090 0-0.197 0.001-0.305 0.001-10.685 0-20.847-2.237-30.043-6.269l0.481 0.188c-14.672-5.666-26.779-15.257-35.38-27.491l-0.162-0.243c-8.259-11.541-13.207-25.943-13.207-41.5 0-0.162 0.001-0.325 0.002-0.487v0.025-872.427c-0.001-0.131-0.001-0.287-0.001-0.442 0-15.564 4.947-29.972 13.355-41.739l-0.148 0.218c8.762-12.477 20.869-22.068 35.021-27.556l0.52-0.178c8.713-3.843 18.872-6.081 29.553-6.081 0.11 0 0.22 0 0.33 0.001h-0.017c0.129-0.001 0.282-0.001 0.435-0.001 21.632 0 41.275 8.511 55.766 22.366l-0.030-0.029 298.475 286.976 298.475-287.019c14.349-13.408 33.683-21.641 54.939-21.641 0.433 0 0.865 0.003 1.297 0.010l-0.065-0.001c0.327-0.005 0.714-0.008 1.101-0.008 26.405 0 49.775 12.997 64.060 32.944l0.162 0.237c8.246 11.531 13.186 25.917 13.186 41.457 0 0.178-0.001 0.355-0.002 0.533v-0.027 872.363c0.001 0.142 0.002 0.31 0.002 0.479 0 15.549-4.939 29.944-13.334 41.703l0.148-0.219zM865.003 32.789l-346.539 332.373-60.224-57.6-286.293-274.773v840.576h693.056v-840.533z" />
<glyph unicode="&#xe92e;" glyph-name="ribbon-invert" d="M213.333 960v-1024l300.971 175.36 301.013-175.36v1024z" />
<glyph unicode="&#xe92f;" glyph-name="right-arrow" d="M798.613 487.957l-455.701 455.68c-10.15 10.114-24.153 16.367-39.616 16.367s-29.466-6.253-39.618-16.369l-33.555-33.555c-10.124-10.145-16.385-24.149-16.385-39.616s6.261-29.471 16.386-39.617l382.634-382.634-383.040-383.083c-10.109-10.152-16.358-24.154-16.358-39.616s6.249-29.464 16.36-39.618l33.555-33.534c10.15-10.114 24.153-16.367 39.616-16.367s29.466 6.253 39.618 16.369l456.126 456.105c10.093 10.207 16.328 24.247 16.328 39.744s-6.235 29.537-16.334 39.749l0.005-0.005z" />
<glyph unicode="&#xe930;" glyph-name="rupee" d="M663.275 622.528c19.281 0 34.912 15.631 34.912 34.912s-15.631 34.912-34.912 34.912v0h-302.549c-19.281 0-34.912-15.631-34.912-34.912s15.631-34.912 34.912-34.912v0h104.725c36.536-0.13 67.379-24.351 77.482-57.6l0.15-0.576h-182.379c-19.281 0-34.912-15.631-34.912-34.912s15.631-34.912 34.912-34.912v0h171.477c-14.869-21.176-39.165-34.857-66.66-34.901h-104.732c0 0 0 0-0.001 0-19.287 0-34.923-15.635-34.923-34.923 0-11.932 5.984-22.467 15.116-28.766l0.117-0.076 256-174.549c5.348-3.494 11.897-5.572 18.931-5.572 19.299 0 34.944 15.645 34.944 34.944 0 11.618-5.67 21.912-14.394 28.265l-0.1 0.069-162.816 110.933c63.322 3.739 115.872 45.969 134.821 103.466l0.304 1.067h54.549c19.281 0 34.912 15.631 34.912 34.912s-15.631 34.912-34.912 34.912v0h-48.917c-3.404 21.927-11.082 41.555-22.182 58.769l0.358-0.593zM512 960c-282.77 0-512-229.23-512-512s229.23-512 512-512c282.77 0 512 229.23 512 512v0c-0.352 282.628-229.372 511.648-511.966 512h-0.034zM512 5.824c-244.207 0-442.176 197.969-442.176 442.176s197.969 442.176 442.176 442.176c244.207 0 442.176-197.969 442.176-442.176v0c-0.303-244.085-198.091-441.873-442.147-442.176h-0.029z" />
<glyph unicode="&#xe931;" glyph-name="rupee-invert" d="M512 960c-282.77 0-512-229.23-512-512s229.23-512 512-512c282.77 0 512 229.23 512 512v0c-0.327 282.638-229.362 511.672-511.968 512h-0.032zM601.984 584h93.013c16.571 0 30.005-13.434 30.005-30.005s-13.434-30.005-30.005-30.005h-93.013c-14.535-68.911-74.792-119.907-146.976-120h-59.167l206.016-242.581c4.436-5.198 7.136-11.996 7.136-19.424 0-16.571-13.434-30.005-30.005-30.005-9.143 0-17.331 4.090-22.835 10.539l-0.035 0.042-247.979 292.011c-4.444 5.199-7.148 12.001-7.148 19.435 0 16.566 13.429 29.995 29.995 29.995 0.008 0 0.016 0 0.024 0h123.988c38.892 0.102 71.986 24.816 84.537 59.383l0.199 0.627h-210.731c-16.566 0-29.995 13.429-29.995 29.995s13.429 29.995 29.995 29.995v0h210.731c-12.757 35.232-45.906 59.962-84.837 60.011h-125.894c-16.566 0-29.995 13.429-29.995 29.995s13.429 29.995 29.995 29.995h365.995c16.566 0 29.995-13.429 29.995-29.995s-13.429-29.995-29.995-29.995h-120.085c12.841-16.883 22.285-37.072 26.901-59.038l0.171-0.973z" />
<glyph unicode="&#xe932;" glyph-name="search" d="M419.392 120.533c0.036 0 0.078 0 0.12 0 86.742 0 167.307 26.448 234.070 71.721l-1.464-0.937 240.939-241.067c9.017-8.779 21.348-14.194 34.944-14.194s25.927 5.414 34.955 14.204l46.922 46.922c8.773 9.031 14.183 21.372 14.183 34.976s-5.409 25.945-14.194 34.988l0.012-0.012-241.877 240.235c44.030 65.301 70.283 145.755 70.283 232.341 0 231.506-187.673 419.179-419.179 419.179s-419.179-187.673-419.179-419.179c0-231.506 187.673-419.179 419.179-419.179 0.101 0 0.202 0 0.303 0h-0.015zM419.392 795.392c0.057 0 0.125 0 0.192 0 140.902 0 255.125-114.224 255.125-255.125s-114.224-255.125-255.125-255.125c-140.902 0-255.125 114.224-255.125 255.125v0c0.061 140.814 114.136 254.965 254.916 255.147h0.017z" />
<glyph unicode="&#xe933;" glyph-name="setting" d="M984.619 366.613l-42.667 35.072c-13.401 11.084-21.875 27.715-21.875 46.325s8.474 35.241 21.775 46.244l0.101 0.081 42.667 35.072c17.896 14.739 29.218 36.9 29.218 61.705 0 14.754-4.006 28.573-10.99 40.428l0.203-0.373-84.117 145.685c-14.025 24.11-39.74 40.060-69.181 40.060-10.12 0-19.8-1.885-28.708-5.322l0.545 0.185-51.669-19.349c-6.263-2.423-13.511-3.827-21.087-3.827-29.65 0-54.277 21.502-59.139 49.764l-0.051 0.356-9.067 54.421c-6.419 38.153-39.205 66.859-78.696 66.859-0.061 0-0.122 0-0.183 0h-168.225c-0.071 0-0.156 0-0.241 0-39.484 0-72.265-28.695-78.627-66.369l-0.065-0.469-9.067-54.421c-4.911-28.62-29.539-50.125-59.191-50.125-7.56 0-14.793 1.398-21.455 3.949l0.411-0.138-51.669 19.371c-8.363 3.253-18.043 5.137-28.163 5.137-29.441 0-55.156-15.95-68.977-39.68l-0.204-0.38-84.096-145.728c-6.784-11.482-10.793-25.303-10.793-40.060 0-24.805 11.325-46.965 29.087-61.59l0.137-0.11 42.667-35.072c13.401-11.084 21.875-27.715 21.875-46.325s-8.474-35.241-21.775-46.244l-0.101-0.081-42.667-35.072c-17.899-14.735-29.225-36.895-29.225-61.7 0-14.757 4.008-28.578 10.996-40.433l-0.203 0.373 84.117-145.685c14.025-24.11 39.74-40.060 69.181-40.060 10.12 0 19.8 1.885 28.708 5.322l-0.545-0.185 51.669 19.349c6.256 2.418 13.495 3.818 21.061 3.818 29.65 0 54.276-21.511 59.124-49.777l0.050-0.356 9.067-54.421c6.428-38.142 39.209-66.838 78.693-66.838 0.077 0 0.154 0 0.231 0h168.223c0.071 0 0.156 0 0.241 0 39.484 0 72.265 28.695 78.627 66.369l0.065 0.469 9.067 54.421c4.911 28.62 29.539 50.125 59.191 50.125 7.56 0 14.793-1.398 21.455-3.949l-0.411 0.138 51.669-19.349c8.365-3.256 18.049-5.142 28.173-5.142 29.439 0 55.152 15.953 68.967 39.685l0.204 0.38 84.117 145.685c6.78 11.482 10.786 25.301 10.786 40.055 0 24.805-11.323 46.966-29.082 61.596l-0.137 0.109zM849.643 159.147l-51.669 19.349c-14.606 5.648-31.507 8.92-49.173 8.92-69.2 0-126.673-50.211-137.974-116.187l-0.118-0.829-9.067-54.421h-168.171l-9.067 54.421c-11.428 66.795-68.896 116.994-138.088 116.994-17.643 0-34.524-3.264-50.071-9.221l0.959 0.323-51.669-19.349-84.139 145.707 42.667 35.072c31.259 25.865 51.025 64.667 51.025 108.085s-19.766 82.22-50.791 107.897l-0.234 0.188-42.667 35.072 84.117 145.685 51.669-19.349c14.594-5.639 31.482-8.905 49.132-8.905 69.195 0 126.664 50.203 137.971 116.172l0.118 0.83 9.067 54.421h168.235l9.003-54.421c11.441-66.793 68.911-116.986 138.105-116.986 17.637 0 34.512 3.261 50.055 9.213l-0.959-0.323 51.733 19.349 84.139-145.664-42.667-35.072c-31.259-25.865-51.025-64.667-51.025-108.085s19.766-82.22 50.791-107.897l0.234-0.188 42.667-35.072zM517.589 645.333c-108.984 0-197.333-88.349-197.333-197.333s88.349-197.333 197.333-197.333c108.984 0 197.333 88.349 197.333 197.333v0c-0.133 108.93-88.403 197.2-197.321 197.333h-0.013zM517.589 330.667c-64.801 0-117.333 52.532-117.333 117.333s52.532 117.333 117.333 117.333c64.801 0 117.333-52.532 117.333-117.333v0c-0.073-64.772-52.561-117.261-117.326-117.333h-0.007z" />
<glyph unicode="&#xe934;" glyph-name="share" d="M822.677 296c-59.057-0.172-111.376-28.864-143.93-73.022l-0.347-0.493-283.733 145.259c5.092 15.418 8.029 33.165 8.029 51.599 0 23.805-4.898 46.466-13.742 67.031l0.422-1.104 296.896 178.645c33.009-38.031 81.423-61.94 135.421-61.94 98.863 0 179.008 80.145 179.008 179.008s-80.145 179.008-179.008 179.008c-98.863 0-179.008-80.145-179.008-179.008 0-0.349 0.001-0.698 0.003-1.047v0.054c0.126-23.334 4.713-45.562 12.95-65.922l-0.428 1.196-297.771-179.2c-33.105 37.66-81.38 61.301-135.176 61.301-99.24 0-179.691-80.45-179.691-179.691s80.45-179.691 179.691-179.691c60.213 0 113.509 29.617 146.115 75.077l0.368 0.539 282.752-144.789c-5.342-15.726-8.553-33.852-8.83-52.687l-0.002-0.134c0.012-99.396 80.591-179.968 179.989-179.968 99.405 0 179.989 80.584 179.989 179.989s-80.584 179.989-179.989 179.989v0z" />
<glyph unicode="&#xe935;" glyph-name="shuttle" d="M493.397-58.347c-20.164 9.012-34.717 27.387-38.223 49.442l-0.049 0.371-17.259 111.445c-2.888-0.34-6.233-0.533-9.623-0.533-0.052 0-0.104 0-0.156 0h0.008c-24.78 0.093-47.195 10.141-63.47 26.35l-171.837 171.922c-16.261 16.251-26.32 38.708-26.32 63.513 0 3.426 0.192 6.807 0.565 10.133l-0.037-0.408-111.531 17.237c-31.599 5.078-55.448 32.15-55.448 64.791 0 13.474 4.064 26 11.033 36.417l-0.15-0.238 99.925 151.104c14.991 22.606 39.519 37.857 67.709 40.003l0.301 0.018 141.355 10.923c62.092 74.937 136.583 137.059 220.75 183.89l3.933 2.008c99.508 50.445 216.955 79.994 341.304 79.994 2.621 0 5.238-0.013 7.853-0.039l-0.399 0.003c14.933 0 29.867-0.405 44.331-1.195 45.797-2.518 82.304-39.024 84.811-84.591l0.010-0.231c0.923-14.244 1.449-30.884 1.449-47.647 0-125.787-29.611-244.658-82.243-350.023l2.053 4.54c-48.85-88.098-110.978-162.589-184.64-223.652l-1.28-1.031-10.923-141.355c-2.164-28.492-17.415-53.019-39.692-67.805l-0.33-0.206-151.104-99.925c-10.157-6.824-22.661-10.892-36.116-10.892-9.618 0-18.75 2.078-26.972 5.811l0.41-0.167zM518.549 121.92l14.165-91.413 128.917 85.333c1.822 1.19 3.052 3.155 3.22 5.417l0.001 0.023 5.483 71.232c-43.65-27.945-93.894-51.884-147.103-69.268l-4.684-1.324zM249.131 365.12c-0.041-0.282-0.064-0.608-0.064-0.94 0-1.993 0.844-3.79 2.194-5.051l171.865-171.865c1.289-1.351 3.103-2.191 5.113-2.191 0.318 0 0.632 0.021 0.939 0.062l-0.036-0.004c25.935 4.439 48.409 10.083 70.203 17.229l-3.429-0.973-230.4 230.528c-6.204-18.374-11.891-40.871-15.956-63.928l-0.428-2.93zM582.805 806.72c-78.481-43.73-144.811-99.331-199.101-165.223l-0.942-1.177c-30.93-36.621-58.619-77.785-81.567-121.813l-1.761-3.712 279.232-279.36c47.743 24.674 88.91 52.366 126.514 84.142l-0.988-0.814c67.082 55.223 122.685 121.555 164.616 196.568l1.784 3.475c44.834 89.752 71.076 195.522 71.076 307.421 0 15.219-0.485 30.324-1.442 45.301l0.104-2.044c-0.198 3.688-3.139 6.629-6.809 6.826l-0.018 0.001c-13.056 0.704-26.56 1.067-40.043 1.067-2.238 0.026-4.881 0.041-7.528 0.041-110.409 0-214.714-26.135-307.066-72.555l3.939 1.794zM185.173 600.832c-2.284-0.154-4.253-1.379-5.423-3.173l-0.017-0.027-85.333-128.917 91.413-14.165c18.644 57.891 42.521 108.138 71.998 154.475l-1.598-2.688zM12.117-51.904c-7.481 7.475-12.108 17.805-12.108 29.216s4.627 21.741 12.108 29.216l183.872 183.894c7.52 7.751 18.034 12.561 29.671 12.561 22.822 0 41.323-18.501 41.323-41.323 0-11.637-4.81-22.151-12.551-29.661l-183.903-183.882c-7.474-7.475-17.8-12.098-29.205-12.098s-21.731 4.623-29.205 12.098v0zM188.011-51.307c-7.481 7.475-12.108 17.805-12.108 29.216s4.627 21.741 12.108 29.216l95.723 95.638c7.43 7.208 17.576 11.652 28.761 11.652 22.822 0 41.323-18.501 41.323-41.323 0-11.185-4.444-21.332-11.662-28.772l-95.649-95.627c-7.469-7.485-17.797-12.115-29.205-12.115s-21.736 4.631-29.205 12.115l-0.001 0.001zM12.693 124.011c-7.485 7.469-12.115 17.797-12.115 29.205s4.631 21.736 12.115 29.205l95.638 95.66c7.577 8.222 18.399 13.355 30.42 13.355 22.822 0 41.323-18.501 41.323-41.323 0-12-5.115-22.805-13.283-30.354l-0.028-0.025-95.637-95.723c-7.475-7.481-17.805-12.108-29.216-12.108s-21.741 4.627-29.216 12.108v0zM696.981 474.581c-87.401 0.077-158.223 70.946-158.223 158.357 0 87.458 70.899 158.357 158.357 158.357s158.357-70.899 158.357-158.357c0-43.741-17.735-83.34-46.406-111.999l-0.001-0.001c-28.499-28.637-67.944-46.358-111.527-46.358-0.196 0-0.392 0-0.588 0.001h0.030zM643.328 686.656c-13.793-13.758-22.327-32.784-22.327-53.803 0-41.968 34.022-75.989 75.989-75.989s75.989 34.022 75.989 75.989c0 41.963-34.015 75.982-75.976 75.989h-0.001c-0.072 0-0.157 0-0.242 0-20.877 0-39.773-8.481-53.431-22.185l-0.002-0.002z" />
<glyph unicode="&#xe936;" glyph-name="shuttle-invert" d="M260.48 683.456l-88.725-6.848c-25.272-1.926-47.027-15.451-60.148-35.207l-0.182-0.292-102.4-154.752c-5.703-8.512-9.102-18.986-9.102-30.253 0-27.326 19.991-49.982 46.145-54.143l0.312-0.041 81.237-12.587c23.361 112.462 69.727 211.438 134.159 295.891l-1.295-1.768zM453.355 63.701l12.587-81.237c4.17-26.477 26.824-46.487 54.152-46.487 11.282 0 21.768 3.411 30.483 9.257l-0.197-0.125 154.752 102.4c20.047 13.304 33.572 35.059 35.482 60.063l0.016 0.268 6.848 88.725c-82.682-63.142-181.659-109.509-289.394-132.037l-4.729-0.827zM422.848 120c0.011 0 0.024 0 0.037 0 3.001 0 5.942 0.256 8.803 0.748l-0.306-0.044c45.997 7.943 86.904 19.937 125.719 35.967l-3.905-1.429-333.867 333.867c-14.602-34.91-26.596-75.817-34.028-118.292l-0.51-3.521c-0.437-2.542-0.687-5.469-0.687-8.455 0-14.504 5.898-27.63 15.426-37.111l186.285-186.285c9.473-9.503 22.561-15.398 37.026-15.445h0.009zM942.357 506.005c51.666 103.557 81.905 225.582 81.905 354.669 0 17.074-0.529 34.024-1.571 50.834l0.114-2.304c-1.529 26.778-22.88 48.106-49.527 49.594l-0.137 0.006c-12.757 0.683-27.861 1.195-44.928 1.195-2.324 0.025-5.070 0.039-7.82 0.039-127.625 0-248.205-30.166-354.998-83.757l4.567 2.076c-138.386-78.003-249.025-190.908-322.132-326.979l-2.135-4.349c1.017-0.791 1.921-1.587 2.775-2.434l359.998-359.998c0.845-0.852 1.641-1.756 2.382-2.706l0.050-0.067c140.461 75.202 253.409 185.815 329.344 320.12l2.112 4.061zM595.413 743.531c27.144 27.148 64.646 43.94 106.069 43.94 82.84 0 149.995-67.155 149.995-149.995s-67.155-149.995-149.995-149.995c-82.835 0-149.987 67.147-149.995 149.98v0.001c0.016 41.418 16.798 78.914 43.927 106.071l-0.001-0.001zM637.824 573.803c16.287-16.284 38.786-26.356 63.637-26.356 49.709 0 90.005 40.297 90.005 90.005s-40.297 90.005-90.005 90.005c-49.709 0-90.005-40.297-90.005-90.005 0-0.004 0-0.009 0-0.013v0.001c0.016-24.851 10.089-47.346 26.369-63.638l-0.001 0.001zM30.613 116.139c0.013 0 0.029 0 0.045 0 8.268 0 15.752 3.36 21.16 8.788l98.028 97.942c5.43 5.43 8.788 12.931 8.788 21.216 0 16.571-13.433 30.004-30.004 30.004-8.285 0-15.786-3.358-21.216-8.788l-98.027-97.963c-5.426-5.428-8.781-12.925-8.781-21.205 0-16.563 13.424-29.99 29.986-29.995v0zM239.531 175.531c-5.429 5.432-12.93 8.792-21.216 8.792s-15.787-3.36-21.216-8.792l-188.309-188.309c-4.975-5.339-8.030-12.526-8.030-20.426 0-16.566 13.429-29.995 29.995-29.995 7.879 0 15.048 3.038 20.401 8.006l-0.019-0.017 188.309 188.309c5.457 5.433 8.835 12.951 8.835 21.259 0 8.265-3.343 15.749-8.75 21.174l0.001-0.001zM286.848 85.781l-97.941-97.941c-5.43-5.43-8.788-12.931-8.788-21.216 0-16.571 13.433-30.004 30.004-30.004 8.285 0 15.786 3.358 21.216 8.788v0l97.941 97.941c5.43 5.43 8.788 12.931 8.788 21.216 0 16.571-13.433 30.004-30.004 30.004-8.285 0-15.786-3.358-21.216-8.788v0z" />
<glyph unicode="&#xe937;" glyph-name="sound" d="M512 575.189c-69.809 0-126.4-56.591-126.4-126.4s56.591-126.4 126.4-126.4c69.809 0 126.4 56.591 126.4 126.4v0c-0.085 69.775-56.626 126.315-126.392 126.4h-0.008zM512 382.379c-36.678 0-66.411 29.733-66.411 66.411s29.733 66.411 66.411 66.411c36.678 0 66.411-29.733 66.411-66.411v0c-0.036-36.663-29.748-66.374-66.407-66.411h-0.004zM283.392 677.397l-42.432 42.432c-69.461-69.321-112.433-165.162-112.433-271.040s42.972-201.719 112.426-271.033l0.007-0.007 42.432 42.432c-58.602 58.462-94.858 139.301-94.858 228.608s36.256 170.146 94.852 228.602l0.006 0.006zM192.555 768.235l-42.432 42.432c-92.743-92.553-150.119-220.515-150.119-361.877s57.376-269.325 150.11-361.869l0.008-0.008 42.432 42.389c-81.886 81.697-132.546 194.66-132.546 319.456s50.66 237.76 132.537 319.448l0.008 0.008zM873.877 810.667l-42.432-42.432c81.891-81.694 132.554-194.658 132.554-319.456s-50.664-237.762-132.545-319.447l-0.009-0.009 42.432-42.432c92.743 92.553 150.119 220.515 150.119 361.877s-57.376 269.325-150.11 361.869l-0.008 0.008zM783.040 719.829l-42.432-42.432c58.602-58.462 94.858-139.301 94.858-228.608s-36.256-170.146-94.852-228.602l-0.006-0.006 42.432-42.432c69.461 69.321 112.433 165.162 112.433 271.040s-42.972 201.719-112.426 271.033l-0.007 0.007zM692.203 628.971l-42.432-42.432c35.314-35.229 57.162-83.943 57.162-137.76s-21.848-102.531-57.158-137.756l-0.004-0.004 42.432-42.432c46.178 46.086 74.746 109.803 74.746 180.192s-28.568 134.106-74.741 180.188l-0.004 0.004zM374.229 586.539l-42.432 42.432c-46.178-46.086-74.746-109.803-74.746-180.192s28.568-134.106 74.741-180.188l0.004-0.004 42.432 42.432c-35.319 35.227-57.171 83.942-57.171 137.76s21.852 102.533 57.167 137.756l0.004 0.004z" />
<glyph unicode="&#xe938;" glyph-name="speak" d="M297.984-36.587l-22.037 142.933h-158.592c-13.84 0.063-25.615 8.832-30.136 21.11l-0.072 0.224-85.333 235.499c-1.2 3.276-1.894 7.059-1.894 11.003 0 6.908 2.128 13.318 5.763 18.612l-0.072-0.112c5.81 8.387 15.379 13.814 26.217 13.824h129.218c16.865 96.921 100.286 169.696 200.732 169.835h299.94c100.567-0.009 184.123-72.828 200.827-168.615l0.176-1.219h63.467c-7.356 70.519-43.268 131.442-95.797 171.812l-0.587 0.433c-8.189-10.655-20.762-17.59-34.972-18.088l-0.079-0.002c-31.296 0-56.661 38.4-56.661 85.504s25.365 85.163 56.661 85.163 57.003-38.165 57.003-85.163c0-1.493 0-3.008 0-4.416 78.005-52.109 130.746-136.776 138.763-234.121l0.074-1.121h1.131c0.045 0 0.098 0 0.152 0 10.797 0 20.325-5.434 25.997-13.717l0.070-0.108c3.67-5.244 5.865-11.757 5.865-18.781 0-3.84-0.656-7.526-1.861-10.954l0.071 0.231-85.461-235.499c-4.557-12.477-16.283-21.24-30.069-21.333h-158.667l-21.909-142.933c-2.482-15.523-15.777-27.243-31.809-27.243-0.007 0-0.014 0-0.021 0h0.001c-0.253-0.008-0.55-0.012-0.849-0.012-1.394 0-2.764 0.098-4.106 0.286l0.154-0.018c-15.588 2.49-27.357 15.839-27.357 31.937 0 1.671 0.127 3.312 0.371 4.915l-0.023-0.18 37.163 241.664h-375.253l37.163-241.664c0.255-1.517 0.401-3.266 0.401-5.048 0-15.947-11.665-29.17-26.928-31.6l-0.182-0.024c-1.456-0.218-3.137-0.342-4.847-0.342-0.066 0-0.132 0-0.197 0.001h0.010c-16.007 0.021-29.259 11.793-31.594 27.151l-0.022 0.177zM884.117 170.752l62.080 171.413h-103.125c-2.882-0.947-6.198-1.494-9.643-1.494-0.052 0-0.105 0-0.157 0h0.008c-0.062 0-0.135-0.001-0.208-0.001-3.424 0-6.72 0.547-9.807 1.557l0.223-0.063h-623.339c-2.85-0.947-6.132-1.494-9.541-1.494-0.073 0-0.147 0-0.22 0.001h0.011c-0.044 0-0.097 0-0.149 0-3.444 0-6.761 0.546-9.868 1.557l0.225-0.063h-102.912l62.080-171.413h126.208l-10.965 71.253c-0.206 1.392-0.324 2.998-0.324 4.632 0 8.122 2.912 15.564 7.748 21.34l-0.042-0.052c5.99 6.807 14.702 11.097 24.416 11.157h450.016c9.731-0.065 18.447-4.353 24.417-11.122l0.031-0.036c4.81-5.567 7.74-12.875 7.74-20.868 0-1.784-0.146-3.534-0.427-5.238l0.025 0.186-10.88-71.253zM797.077 406.592c-15.67 61.174-70.276 105.681-135.288 105.749h-299.933c-65.015-0.084-119.613-44.584-135.085-104.781l-0.211-0.968zM340.544 788.459c0 0.070 0 0.152 0 0.235 0 94.704 76.773 171.477 171.477 171.477s171.477-76.773 171.477-171.477c0-94.697-76.761-171.465-171.455-171.477h-0.001c-94.581 0.109-171.248 76.649-171.563 171.17v0.030zM404.885 788.459c0.158-59.050 48.064-106.859 107.136-106.859 59.17 0 107.136 47.966 107.136 107.136 0 59.162-47.954 107.124-107.113 107.136h-0.001c-0.019 0-0.042 0-0.064 0-59.181 0-107.157-47.976-107.157-107.157 0-0.105 0-0.21 0-0.315v0.016z" />
<glyph unicode="&#xe939;" glyph-name="star" d="M1022.528 567.744c-3.553 10.79-12.773 18.763-24.048 20.46l-0.165 0.020-317.419 46.080-141.952 287.616c-5.007 9.99-15.167 16.728-26.901 16.728s-21.894-6.738-26.823-16.555l-0.079-0.173-142.016-287.616-317.483-46.080c-14.63-2.16-25.73-14.629-25.73-29.69 0-8.433 3.48-16.054 9.083-21.503l0.007-0.007 229.739-223.872-54.336-316.181c-0.277-1.53-0.435-3.291-0.435-5.089 0-16.566 13.429-29.995 29.995-29.995 5.105 0 9.913 1.276 14.121 3.525l-0.161-0.079 284.117 149.291 283.883-149.333c4.047-2.171 8.855-3.447 13.96-3.447 16.566 0 29.995 13.429 29.995 29.995 0 1.798-0.158 3.559-0.462 5.27l0.027-0.181-54.208 316.181 229.717 223.872c5.585 5.453 9.049 13.057 9.049 21.47 0 3.322-0.54 6.518-1.537 9.504l0.061-0.212z" />
<glyph unicode="&#xe93a;" glyph-name="study" d="M679.168 789.333c0-94.257-66.859-170.667-149.333-170.667s-149.333 76.41-149.333 170.667c0 94.257 66.859 170.667 149.333 170.667s149.333-76.41 149.333-170.667zM648.555 606.848c-35.783-23.523-79.648-37.522-126.784-37.522s-91.001 13.999-127.667 38.066l0.883-0.544c-42.586-16.533-79.197-39.344-110.698-67.718l0.32 0.283 237.163-88.939 237.163 88.939c-31.182 28.092-67.792 50.903-107.965 66.604l-2.414 0.831zM887.147 346.027h-20.309c-16.813 0-30.443-13.63-30.443-30.443v0-81.195c0-16.813 13.63-30.443 30.443-30.443v0h20.309c39.24 0 71.051 31.81 71.051 71.051s-31.81 71.051-71.051 71.051v0zM179.627 499.755c-7.959-5.57-13.099-14.694-13.099-25.019 0-0.002 0-0.004 0-0.005v0-67.797h10.155c50.426-0.061 91.289-40.923 91.349-91.343v-81.265c-0.061-50.426-40.923-91.289-91.343-91.349h-10.161v-64.149c0.002-12.972 8.116-24.048 19.546-28.431l0.209-0.070 305.067-114.389v460.8l-283.733 106.368c-3.178 1.231-6.855 1.943-10.699 1.943-6.484 0-12.494-2.029-17.431-5.486l0.098 0.065zM775.509 234.325v81.195c0.061 50.426 40.923 91.289 91.343 91.349h10.161v67.797c-0.002 16.812-13.631 30.439-30.443 30.439-3.84 0-7.513-0.711-10.897-2.008l0.209 0.070-283.669-106.304v-460.8l305.067 114.389c11.638 4.453 19.753 15.529 19.755 28.501v0 64.149h-10.155c-50.391 0.048-91.237 40.842-91.371 91.209v0.013zM207.125 234.389v81.195c0 16.813-13.63 30.443-30.443 30.443h-20.309c-39.24 0-71.051-31.81-71.051-71.051s31.81-71.051 71.051-71.051h20.309c16.813 0 30.443 13.63 30.443 30.443 0 0.008 0 0.015 0 0.023v-0.001z" />
<glyph unicode="&#xe93b;" glyph-name="switch" d="M429.035 483.968v396.693c0 43.818 35.521 79.339 79.339 79.339s79.339-35.521 79.339-79.339v0-396.8c0-43.818-35.521-79.339-79.339-79.339s-79.339 35.521-79.339 79.339v0zM822.763 843.669c-10.034 7.972-22.886 12.79-36.864 12.79-32.872 0-59.521-26.648-59.521-59.521 0-18.895 8.804-35.733 22.534-46.637l0.122-0.094c90.789-71.92 148.508-182.161 148.508-305.883 0-214.988-174.282-389.269-389.269-389.269s-389.269 174.282-389.269 389.269c0 123.649 57.651 233.834 147.54 305.139l0.805 0.616c14.242 10.987 23.327 28.058 23.327 47.251 0 32.872-26.648 59.52-59.52 59.52-14.27 0-27.367-5.022-37.621-13.395l0.107 0.085c-118.366-93.905-193.604-237.737-193.604-399.142 0-280.696 227.549-508.245 508.245-508.245s508.245 227.549 508.245 508.245c0 161.478-75.306 305.367-192.714 398.464l-1.053 0.806z" />
<glyph unicode="&#xe93c;" glyph-name="university" d="M440.832 144.171h142.4v-208.171h-142.4zM269.867 580.139v-644.16h110.933v268.16h262.4v-268.16h110.933v644.16l-242.112 120.064zM410.795 278.827h-67.477v60.011h67.477zM410.795 413.76h-67.477v59.989h67.477zM545.728 278.827h-67.477v60.011h67.477zM545.728 413.76h-67.477v59.989h67.477zM613.205 473.749h67.477v-60.011h-67.477zM613.205 338.816h67.477v-60.011h-67.477zM545.728 548.608h-67.477v59.989h67.477zM814.123 485.12v-549.12h209.877v549.12zM952.789 45.653h-67.456v59.989h67.477zM952.789 180.587h-67.456v59.989h67.477zM952.789 315.52h-67.456v60.011h67.477zM0-64h209.877v549.12h-209.877zM71.211 375.467h67.456v-60.053h-67.456zM71.211 240.533h67.456v-60.011h-67.456zM71.211 105.6h67.456v-60.011h-67.456zM542.016 752.32v112.747h122.411v94.933h-182.421v-207.68l29.995 14.933z" />
<glyph unicode="&#xe93d;" glyph-name="up-arrow" d="M473.067 721.877l-445.781-445.803c-9.891-9.929-16.007-23.627-16.007-38.752s6.115-28.823 16.009-38.754l32.83-32.809c9.925-9.902 23.623-16.024 38.752-16.024s28.827 6.123 38.753 16.025l374.335 374.335 374.763-374.763c9.932-9.886 23.628-15.998 38.752-15.998s28.82 6.112 38.754 16l32.809 32.83c9.891 9.929 16.007 23.627 16.007 38.752s-6.115 28.823-16.009 38.754l-446.185 446.206c-9.984 9.876-23.72 15.977-38.88 15.977s-28.896-6.101-38.885-15.982l0.005 0.005z" />
<glyph unicode="&#xe93e;" glyph-name="upload" d="M273.067 592.981h104.427v-309.76c0-31.411 25.464-56.875 56.875-56.875v0h155.264c31.411 0 56.875 25.464 56.875 56.875v0 309.76h104.384c0.035 0 0.077 0 0.119 0 23.564 0 42.667 19.103 42.667 42.667 0 11.833-4.817 22.541-12.597 30.27l-238.935 238.935c-7.74 7.719-18.422 12.493-30.219 12.493s-22.479-4.773-30.22-12.494l-238.932-238.932c-7.782-7.731-12.599-18.439-12.599-30.272 0-23.564 19.103-42.667 42.667-42.667 0.042 0 0.084 0 0.126 0h-0.006zM973.077 483.925c-28.139-0.182-50.88-23.035-50.88-51.199 0 0 0-0.001 0-0.001v0-214.635c0-0.083 0-0.181 0-0.279 0-64.010-51.727-115.938-115.66-116.265h-589.044c-63.941 0.327-115.648 52.236-115.648 116.223 0 0.113 0 0.226 0 0.339v-0.017 214.528c0.007 0.31 0.011 0.676 0.011 1.042 0 28.124-22.799 50.923-50.923 50.923s-50.923-22.799-50.923-50.923c0-0.366 0.004-0.732 0.012-1.097l-0.001 0.054v-214.528c0-0.172-0.001-0.375-0.001-0.579 0-120.337 97.243-217.961 217.435-218.578h589.072c120.242 0.629 217.473 98.249 217.473 218.579 0 0.203 0 0.407-0.001 0.61v-0.031 214.528c0 0.032 0 0.070 0 0.107 0 28.18-22.765 51.042-50.908 51.199h-0.015z" />
<glyph unicode="&#xe93f;" glyph-name="upload-big-arrow" d="M273.067 582.315h104.427v-309.76c0-31.411 25.464-56.875 56.875-56.875v0h155.264c31.411 0 56.875 25.464 56.875 56.875v0 309.76h104.384c0.035 0 0.077 0 0.119 0 23.564 0 42.667 19.103 42.667 42.667 0 11.833-4.817 22.541-12.597 30.27l-238.935 238.935c-7.74 7.719-18.422 12.493-30.219 12.493s-22.479-4.773-30.22-12.494l-238.932-238.932c-7.782-7.731-12.599-18.439-12.599-30.272 0-23.564 19.103-42.667 42.667-42.667 0.042 0 0.084 0 0.126 0h-0.006zM973.077 473.259c-28.139-0.182-50.88-23.035-50.88-51.199 0 0 0-0.001 0-0.001v0-214.635c0-0.083 0-0.181 0-0.279 0-64.010-51.727-115.938-115.66-116.265h-589.044c-63.941 0.327-115.648 52.236-115.648 116.223 0 0.113 0 0.226 0 0.339v-0.017 214.528c0.007 0.31 0.011 0.676 0.011 1.042 0 28.124-22.799 50.923-50.923 50.923s-50.923-22.799-50.923-50.923c0-0.366 0.004-0.732 0.012-1.097l-0.001 0.054v-214.528c0-0.172-0.001-0.375-0.001-0.579 0-120.337 97.243-217.961 217.435-218.578h589.072c120.242 0.629 217.473 98.249 217.473 218.579 0 0.203 0 0.407-0.001 0.61v-0.031 214.528c0 0.032 0 0.070 0 0.107 0 28.18-22.765 51.042-50.908 51.199h-0.015z" />
<glyph unicode="&#xe940;" glyph-name="user" d="M511.979 960c-282.77 0-512-229.23-512-512s229.23-512 512-512c282.77 0 512 229.23 512 512v0c0 282.77-229.23 512-512 512v0zM513.536 206.464h-221.867c0 160 140.459 160 171.648 201.728l3.563 19.072c-45.108 27.13-74.82 75.818-74.82 131.446 0 2.404 0.056 4.796 0.165 7.173l-0.012-0.337c0 82.453 53.632 149.333 119.765 149.333s119.765-66.837 119.765-149.333c0.093-1.997 0.146-4.339 0.146-6.693 0-55.262-29.224-103.699-73.061-130.698l-0.664-0.38 4.053-21.675c34.133-39.787 169.984-42.389 169.984-199.637z" />
<glyph unicode="&#xe941;" glyph-name="user-invert" horiz-adv-x="917" d="M458.368 960c-146.84 0-265.877-119.037-265.877-265.877s119.037-265.877 265.877-265.877c146.84 0 265.877 119.037 265.877 265.877v0c-0.447 146.66-119.217 265.43-265.834 265.877h-0.043zM914.645 215.808c-7.721 18.647-16.677 34.695-27.225 49.532l0.516-0.764c-51.62 76.677-132.845 130.031-226.929 143.744l-1.786 0.214c-1.828 0.242-3.943 0.38-6.089 0.38-10.299 0-19.856-3.182-27.739-8.615l0.165 0.107c-46.225-34.097-104.316-54.572-167.189-54.572s-120.964 20.475-167.969 55.12l0.78-0.549c-7.204 5.474-16.324 8.77-26.214 8.77-2.632 0-5.21-0.233-7.714-0.681l0.264 0.039c-95.976-13.613-177.307-67.060-227.966-142.769l-0.749-1.189c-9.703-14.028-18.639-30.053-25.994-46.925l-0.716-1.843c-1.304-2.909-2.063-6.305-2.063-9.878 0-4.479 1.193-8.679 3.278-12.3l-0.064 0.12c10.605-17.877 20.951-33.036 32.135-47.516l-0.797 1.073c16.501-22.391 34.004-42.127 53.119-60.173l0.214-0.2c16.382-15.816 33.763-31.013 51.871-45.328l1.462-1.115c87.025-65.249 196.824-104.484 315.787-104.484s228.762 39.235 317.163 105.471l-1.376-0.987c19.628 14.911 37.028 30.126 53.33 46.44l0.003 0.003c18.934 18.448 36.41 38.156 52.381 59.074l0.952 1.299c10.636 13.508 20.989 28.676 30.3 44.53l1.039 1.913c3.472 3.566 5.613 8.443 5.613 13.819 0 2.988-0.661 5.821-1.845 8.362l0.051-0.122z" />
<glyph unicode="&#xe942;" glyph-name="varified" d="M504.043-64c-0.145-0.002-0.316-0.003-0.487-0.003-3.282 0-6.456 0.461-9.462 1.321l0.242-0.059c-2.052 0.37-3.883 0.977-5.588 1.805l0.127-0.056c-251.146 102.469-424.917 344.802-424.917 627.721 0 0.042 0 0.084 0 0.126v-0.006 273.216c0 0.010 0 0.022 0 0.034 0 16.607 10.164 30.84 24.61 36.818l0.264 0.097c122.774 48.894 264.9 79.017 413.544 83.015l1.667 0.035c150.183-3.761 292.259-33.91 423.253-85.959l-8.299 2.908c14.728-6.012 24.918-20.225 24.918-36.817 0-0.046 0-0.093 0-0.139v0.007-273.216c-0.106-282.965-173.818-525.33-420.404-626.374l-4.513-1.637c-1.51-0.602-3.324-1.146-5.194-1.539l-0.225-0.039c-2.798-0.8-6.011-1.259-9.331-1.259-0.072 0-0.144 0-0.216 0.001h0.011zM344.043 542.997c-22.065-0.066-39.926-17.968-39.926-40.042 0-11.013 4.446-20.987 11.64-28.226l119.998-119.955c7.262-7.207 17.266-11.662 28.309-11.662s21.047 4.454 28.312 11.664l239.955 240.041c7.218 7.242 11.681 17.233 11.681 28.267s-4.463 21.025-11.682 28.268l0.001-0.001c-7.234 7.233-17.228 11.707-28.267 11.707s-21.032-4.474-28.267-11.707l-211.712-211.797-91.733 91.733c-7.17 7.234-17.11 11.713-28.096 11.713-0.105 0-0.21 0-0.315-0.001h0.016z" />
<glyph unicode="&#xe943;" glyph-name="video-camera" d="M1024 667.051v-426.005c-0.037-23.643-19.211-42.795-42.859-42.795-7.842 0-15.193 2.106-21.517 5.784l0.205-0.11-177.408 102.4v-29.013c-0.012-87.666-71.076-158.729-158.74-158.741h-464.94c-87.666 0.012-158.729 71.076-158.741 158.74v353.26c0.012 87.666 71.076 158.729 158.74 158.741h465.068c87.666-0.012 158.729-71.076 158.741-158.74v-29.142l177.451 102.315c6.161 3.682 13.589 5.858 21.525 5.858 23.458 0 42.475-19.017 42.475-42.475 0-0.027 0-0.054 0-0.081v0.004z" />
<glyph unicode="&#xe944;" glyph-name="view" d="M11.968 404.288c-7.443 9.269-11.945 21.175-11.945 34.133s4.502 24.865 12.028 34.241l-0.083-0.107c55.744 69.333 254.592 295.509 500.032 295.509s444.373-226.133 500.117-295.509c7.425-9.275 11.915-21.18 11.915-34.133s-4.49-24.858-12-34.242l0.084 0.109c-55.744-69.333-254.592-295.509-500.117-295.509s-444.288 226.155-500.032 295.509zM273.344 438.421c0.024-131.811 106.884-238.656 238.699-238.656 131.83 0 238.699 106.869 238.699 238.699s-106.869 238.699-238.699 238.699c-0.007 0-0.015 0-0.022 0h0.001c-0.013 0-0.028 0-0.043 0-131.794 0-238.635-106.84-238.635-238.635 0-0.052 0-0.105 0-0.157v0.008zM346.88 438.421c0 0.019 0 0.042 0 0.064 0 91.205 73.936 165.141 165.141 165.141s165.141-73.936 165.141-165.141c0-91.205-73.936-165.141-165.141-165.141-0.007 0-0.015 0-0.022 0h0.001c-91.139 0.061-165.011 73.903-165.12 165.024v0.010zM407.296 449.92h54.699c0.191 20.636 16.868 37.313 37.486 37.504h0.018v54.656c-50.657-0.653-91.55-41.545-92.202-92.141l-0.001-0.062z" />
<glyph unicode="&#xe945;" glyph-name="world" horiz-adv-x="1034" d="M942.295 727.873l-16.199-4.847-86.164-7.216-24.363-36.62-17.685 5.278-68.652 58.161-9.952 30.158-13.334 32.312-43.082 36.34-50.902 9.349-1.163-21.864 49.674-45.581 24.406-26.991-27.443-13.463-22.338 6.182-33.475 13.097 1.142 25.268-43.901 16.953-14.583-59.561-44.267-9.413 4.308-33.216 57.666-10.426 9.952 53.077 47.606-6.592 22.123-12.171h35.5l24.298-45.689 64.408-61.328-4.718-23.846-51.936 6.204-89.74-42.544-64.623-72.766-8.401-32.312h-23.135l-43.211 18.698-41.984-18.698 10.447-41.574 18.267 19.775 32.118 0.948-2.154-37.331 26.603-7.302 26.582-28.003 43.298 11.589 49.545-7.346 57.558-14.519 28.736-3.167 48.726-51.914 94.049-51.914-60.789-109.17-64.214-28.003-24.363-62.34-92.928-58.161-9.887-33.583c237.555 53.637 414.257 253.905 414.257 493.356-0.183 106.217-34.532 204.374-92.64 284.11l0.961-1.383zM603.539 194.472l-39.42 73.111 36.189 75.394-36.189 10.771-40.756 40.863-90.020 20.206-29.878 62.469v-37.072h-13.162l-77.548 105.185v86.401l-56.869 92.476-90.236-16.091h-60.832l-30.61 20.055 39.054 30.955-38.946-9.004c-46.706-78.319-74.318-172.721-74.318-273.573 0-298.61 242.072-540.682 540.682-540.682 0.213 0 0.425 0 0.638 0h-0.033c24.186 0.229 47.738 1.936 70.848 5.037l-2.908-0.319-5.644 65.593s24.858 97.409 24.858 100.705-24.902 87.522-24.902 87.522zM201.129 785.517l96.16 13.399 44.332 24.298 49.868-14.368 79.702 4.308 27.293 42.931 39.808-6.462 96.677 9.069 26.646 29.361 37.568 25.095 53.142-7.992 19.387 2.93c-67.625 32.793-147.090 51.96-231.032 51.96-167.454 0-317.093-76.276-416.067-195.98l-0.729-0.908h0.28zM564.14 906.147l55.188 30.459 35.5-20.507-51.311-39.119-49.071-4.933-22.101 14.346zM400.428 901.71l24.406-10.167 31.945 10.167 17.405-30.158-73.8-19.258-35.457 20.636s34.681 22.446 35.457 28.779z" />
</font>
</defs>
</svg>
